James Newby & Joseph Middleton - I Wonder as I Wander (2020) [Official Digital Download 24/96]

Posted By: El Misha
James Newby & Joseph Middleton - I Wonder as I Wander (2020) [Official Digital Download 24/96]

James Newby & Joseph Middleton - I Wonder as I Wander (2020)
FLAC (tracks) 24-bit/96 kHz | Time - 01:15:09 | 1.20 GB
Studio Master, Official Digital Download | Artwork: Front cover+digital booklet

When deciding on the repertoire for his début recital, James Newby’s first choice fell on An die ferne Geliebte, songs that he had been performing ever since the beginning of his career. But Beethoven’s song cycle – and perhaps even more so the quasi-operatic Adelaide – also sets a tone for the entire programme, that of longing and of wanting to be elsewhere, near the distant beloved. These are emotions that Schubert, perhaps more than any other composer, has plumbed in depth, and Newby went on to select five of his songs that in various ways depict the restlessness and loneliness of the eternal wanderer.

Mahler is another composer who knew something about longing – for instance that it can be deadly, which he demonstrated with his Zu Straßburg auf der Schanz, in which a soldier awaits execution after trying to desert to his homeland while the piano imitates the muffled rolling of drums. The military theme continues in the high-strung Revelge, as a young soldier marches towards his death, thinking about his sweetheart with ever-greater desperation. The final song by Mahler, Urlicht, expresses the anguish and pain of earthly life, and the longing for Heaven and, in effect, death.

Framing this programme with five folk song arrangements by Benjamin Britten, James Newby and Joseph Middleton explore Man’s never-ending search (geographical or psychological) for that distant object of desire: who, what or wherever it may be.



Tracklist:

01. Tom Bowling & Other Song Arrangements: No. 6, I Wonder as I Wander
02. Folksong Arrangements, Vol. 3 "British Isles": No. 2, There's None to Soothe
03. Der Wanderer, D. 489
04. Der Wanderer, D. 649
05. Auf der Donau, Op. 21 No. 1, D. 553
06. Im Freien, Op. 80 No. 3, D. 880
07. Abendstern, D. 806
08. Adelaide, Op. 46
09. 8 Songs, Op. 52: No. 4, Maigesang
10. An die ferne Geliebte, Op. 98: No. 1, Auf dem Hügel sitz ich spähend
11. An die ferne Geliebte, Op. 98: No. 2, Wo die Berge so blau
12. An die ferne Geliebte, Op. 98: No. 3, Leichte Segler in den Höhen
13. An die ferne Geliebte, Op. 98: No. 4, Diese Wolken in den Höhen
14. An die ferne Geliebte, Op. 98: No. 5, Es kehret der Maien, es blühet die Au
15. An die ferne Geliebte, Op. 98: No. 6, Nimm sie hin denn, diese Lieder
16. Lieder und Gesänge, Vol. 3: No. 10, Zu Straßburg auf der Schanz'
17. Des Knaben Wunderhorn (Version for Voice & Piano) [Excerpts]: No. 11a, Revelge
18. Des Knaben Wunderhorn (Version for Voice & Piano) [Excerpts]: No. 11, Urlicht
19. Folksong Arrangements, Vol. 4 "Moore's Irish Melodies" (Excerpts): No. 5, At the Mid Hour of Night
20. Folksong Arrangements, Vol. 4 "Moore's Irish Melodies" (Excerpts): No. 9, The Last Rose of Summer
21. Folksong Arrangements, Vol. 4 "Moore's Irish Melodies" (Excerpts): No. 2, Sail On, Sail On

foobar2000 1.4 / Dynamic Range Meter 1.1.1
log date: 2020-12-02 06:59:14

––––––––––––––––––––––––––––––––––––––––
Analyzed: James Newby & Joseph Middleton / I Wonder as I Wander
––––––––––––––––––––––––––––––––––––––––

DR Peak RMS Duration Track
––––––––––––––––––––––––––––––––––––––––
DR16 -11.58 dB -34.68 dB 4:31 01-Britten: Tom Bowling & Other Song Arrangements: No. 6, I Wonder as I Wander
DR15 -7.66 dB -32.91 dB 1:54 02-Britten: Folksong Arrangements, Vol. 3 "British Isles": No. 2, There's None to Soothe
DR16 -2.39 dB -26.46 dB 5:42 03-Schubert: Der Wanderer, D. 489
DR16 -10.26 dB -32.00 dB 3:05 04-Schubert: Der Wanderer, D. 649
DR14 -5.42 dB -27.26 dB 3:12 05-Schubert: Auf der Donau, Op. 21 No. 1, D. 553
DR16 -5.15 dB -27.22 dB 5:39 06-Schubert: Im Freien, Op. 80 No. 3, D. 880
DR14 -9.59 dB -30.49 dB 2:57 07-Schubert: Abendstern, D. 806
DR15 -2.88 dB -23.65 dB 5:25 08-Beethoven: Adelaide, Op. 46
DR16 -3.23 dB -23.54 dB 2:11 09-Beethoven: 8 Songs, Op. 52: No. 4, Maigesang
DR16 -0.27 dB -26.34 dB 2:36 10-Beethoven: An die ferne Geliebte, Op. 98: No. 1, Auf dem Hügel sitz ich spähend
DR13 -5.38 dB -25.07 dB 1:34 11-Beethoven: An die ferne Geliebte, Op. 98: No. 2, Wo die Berge so blau
DR13 -6.60 dB -24.44 dB 1:32 12-Beethoven: An die ferne Geliebte, Op. 98: No. 3, Leichte Segler in den Höhen
DR13 -4.31 dB -23.04 dB 0:57 13-Beethoven: An die ferne Geliebte, Op. 98: No. 4, Diese Wolken in den Höhen
DR15 -0.84 dB -25.10 dB 2:33 14-Beethoven: An die ferne Geliebte, Op. 98: No. 5, Es kehret der Maien, es blühet die Au
DR17 -0.20 dB -23.89 dB 4:22 15-Beethoven: An die ferne Geliebte, Op. 98: No. 6, Nimm sie hin denn, diese Lieder
DR15 -4.29 dB -26.08 dB 4:26 16-Mahler: Lieder und Gesänge, Vol. 3: No. 10, Zu Straßburg auf der Schanz'
DR14 -0.87 dB -20.29 dB 6:51 17-Mahler: Des Knaben Wunderhorn (Version for Voice & Piano) [Excerpts]: No. 11a, Revelge
DR18 -5.16 dB -29.90 dB 5:23 18-Mahler: Des Knaben Wunderhorn (Version for Voice & Piano) [Excerpts]: No. 11, Urlicht
DR17 -5.38 dB -29.42 dB 2:46 19-Britten: Folksong Arrangements, Vol. 4 "Moore's Irish Melodies" (Excerpts): No. 5, At the Mid Hour of Night
DR15 -6.90 dB -28.50 dB 4:23 20-Britten: Folksong Arrangements, Vol. 4 "Moore's Irish Melodies" (Excerpts): No. 9, The Last Rose of Summer
DR13 -18.90 dB -37.69 dB 3:10 21-Britten: Folksong Arrangements, Vol. 4 "Moore's Irish Melodies" (Excerpts): No. 2, Sail On, Sail On
––––––––––––––––––––––––––––––––––––––––

Number of tracks: 21
Official DR value: DR15

Samplerate: 96000 Hz
Channels: 2
Bits per sample: 24
Bitrate: 2116 kbps
Codec: FLAC
================================================================================



Thanks to the Original customer!