Tags
Language
Tags

Jean-Marie Leclair - Jean-Marie Leclair: A Portrait, Sonatas and Dances (2021) [Official Digital Download 24/88]

Posted By: El Misha
Jean-Marie Leclair - Jean-Marie Leclair: A Portrait, Sonatas and Dances  (2021) [Official Digital Download 24/88]

Le Concert Universel, Juliette Roumailhac, Silvia de Maria & Brice Sailly - Leclair: A Portrait, Sonatas and Dances (2021)
FLAC (tracks) 24-bit/88.2 kHz | Time - 57:28 | 1.09 GB
Studio Master, Official Digital Download | Artwork: Front cover+digital booklet

A brilliant dancer before becoming “famous throughout Europe for his learned and elaborate sonatas, and for the elegance of his performance on the violin”, Jean-Marie Leclair is far more than the sum of his talents. His music is woven with the multiple threads of his life, carrying within it all the facets of his technical and musical explorations, his travels, his impressions, which have moulded man as much as musician.

“You should have seen him, at sixty-seven years of age, performing with astonishing gusto, communicating his energy to the whole orchestra, and […] savouring the pleasure of being admired, with that modest and pure joy that so befits a young man being praised for the first time”.

It is the man, of “noble simplicity”, alert and passionate to the end of his life, as much as the musician-dancer, fertile creator of virtuoso elegance, that this recording wishes to portray.

His music, too rarely played, brings together the brightness of Italy, French taste without the rigidity of etiquette, love of the violin, of sound, and virtuosity that always allows poetry and beauty to take precedence.



Tracklist:

1. Juliette Roumailhac, Le Concert Universel, Stéphanie de Failly, Silvia de Maria & Brice Sailly – Scylla et Glaucus: Gigue (01:41)
2. Juliette Roumailhac, Le Concert Universel, Stéphanie de Failly, Silvia de Maria & Brice Sailly – Scylla et Glaucus: Passepied (01:06)
3. Juliette Roumailhac, Le Concert Universel, Silvia de Maria & Brice Sailly – 5ème Sonate pour violon et basse continue en la mineur (4ème livre) Op. 9 No. 5: I. Andante (07:31)
4. Juliette Roumailhac, Le Concert Universel, Silvia de Maria & Brice Sailly – 5ème Sonate pour violon et basse continue en la mineur (4ème livre) Op. 9 No. 5: II. Allegro assai (04:01)
5. Juliette Roumailhac, Le Concert Universel, Silvia de Maria & Brice Sailly – 5ème Sonate pour violon et basse continue en la mineur (4ème livre) Op. 9 No. 5: III. Adagio (03:31)
6. Juliette Roumailhac, Le Concert Universel, Silvia de Maria & Brice Sailly – 5ème Sonate pour violon et basse continue en la mineur (4ème livre) Op. 9 No. 5: IV. Allegro ma non troppo (02:27)
7. Juliette Roumailhac, Le Concert Universel & Brice Sailly – Scylla et Glaucus: 2ème Air (01:53)
8. Juliette Roumailhac, Le Concert Universel, Silvia de Maria & Brice Sailly – 3ème sonate pour violon et basse continue en ré majeur (4ème livre) Op. 9 No. 3: I. Un poco andante (04:20)
9. Juliette Roumailhac, Le Concert Universel, Silvia de Maria & Brice Sailly – 3ème sonate pour violon et basse continue en ré majeur (4ème livre) Op. 9 No. 3: II. Allegro (02:16)
10. Juliette Roumailhac, Le Concert Universel, Silvia de Maria & Brice Sailly – 3ème sonate pour violon et basse continue en ré majeur (4ème livre) Op. 9 No. 3: III. Sarabande (02:52)
11. Juliette Roumailhac, Le Concert Universel, Silvia de Maria & Brice Sailly – 3ème sonate pour violon et basse continue en ré majeur (4ème livre) Op. 9 No. 3: IV. Tambourin (02:17)
12. Brice Sailly & Le Concert Universel – Scylla et Glaucus: Musette (01:25)
13. Silvia de Maria, Le Concert Universel & Brice Sailly – Scylla et Glaucus : 1er Air en rondeau (01:35)
14. Juliette Roumailhac, Le Concert Universel, Stéphanie de Failly, Silvia de Maria & Brice Sailly – Scylla et Glaucus: Marche des Bergers et des Silvains (03:01)
15. Juliette Roumailhac, Le Concert Universel, Stéphanie de Failly, Silvia de Maria & Brice Sailly – Ouverture pour deux violons et basse continue en la majeur, Op. 13 No. 3: I. Grave-Allegro (06:04)
16. Juliette Roumailhac, Le Concert Universel, Stéphanie de Failly, Silvia de Maria & Brice Sailly – Ouverture pour deux violons et basse continue en la majeur, Op. 13 No. 3: II. Largo (02:39)
17. Juliette Roumailhac, Le Concert Universel, Stéphanie de Failly, Silvia de Maria & Brice Sailly – Ouverture pour deux violons et basse continue en la majeur, Op. 13 No. 3: III. Allegro assai (02:24)
18. Juliette Roumailhac, Le Concert Universel, Stéphanie de Failly, Silvia de Maria & Brice Sailly – Scylla et Glaucus: Forlane (02:11)
19. Juliette Roumailhac, Le Concert Universel, Stéphanie de Failly, Silvia de Maria & Brice Sailly – Scylla et Glaucus: 2ème Air, gay (02:11)
20. Juliette Roumailhac, Le Concert Universel, Stéphanie de Failly, Silvia de Maria & Brice Sailly – Scylla et Glaucus: 3ème Air, vite (02:03)

foobar2000 1.4 / Dynamic Range Meter 1.1.1
log date: 2021-01-16 06:57:13

––––––––––––––––––––––––––––––––––––––––
Analyzed: Brice Sailly / Jean-Marie Leclair: A Portrait, Sonatas and Dances (1)
Juliette Roumailhac / Jean-Marie Leclair: A Portrait, Sonatas and Dances (2-19)
Silvia de Maria / Jean-Marie Leclair: A Portrait, Sonatas and Dances (20)
––––––––––––––––––––––––––––––––––––––––

DR Peak RMS Duration Track
––––––––––––––––––––––––––––––––––––––––
DR11 -10.46 dB -23.53 dB 1:26 12-Scylla et Glaucus: Musette
DR10 0.00 dB -13.10 dB 1:42 01-Scylla et Glaucus: Gigue
DR13 0.00 dB -15.33 dB 1:06 02-Scylla et Glaucus: Passepied
DR12 0.00 dB -15.69 dB 7:31 03-5ème Sonate pour violon et basse continue en la mineur (4ème livre) Op. 9 No. 5: I. Andante
DR13 0.00 dB -15.26 dB 4:01 04-5ème Sonate pour violon et basse continue en la mineur (4ème livre) Op. 9 No. 5: II. Allegro assai
DR13 0.00 dB -17.87 dB 3:31 05-5ème Sonate pour violon et basse continue en la mineur (4ème livre) Op. 9 No. 5: III. Adagio
DR14 -0.12 dB -17.30 dB 2:28 06-5ème Sonate pour violon et basse continue en la mineur (4ème livre) Op. 9 No. 5: IV. Allegro ma non troppo
DR12 -5.32 dB -21.75 dB 1:53 07-Scylla et Glaucus: 2ème Air
DR13 -0.07 dB -17.09 dB 4:20 08-3ème sonate pour violon et basse continue en ré majeur (4ème livre) Op. 9 No. 3: I. Un poco andante
DR13 0.00 dB -15.60 dB 2:17 09-3ème sonate pour violon et basse continue en ré majeur (4ème livre) Op. 9 No. 3: II. Allegro
DR12 -0.29 dB -18.19 dB 2:53 10-3ème sonate pour violon et basse continue en ré majeur (4ème livre) Op. 9 No. 3: III. Sarabande
DR13 0.00 dB -16.20 dB 2:18 11-3ème sonate pour violon et basse continue en ré majeur (4ème livre) Op. 9 No. 3: IV. Tambourin
DR12 0.00 dB -14.89 dB 3:01 14-Scylla et Glaucus: Marche des Bergers et des Silvains
DR13 0.00 dB -15.14 dB 6:05 15-Ouverture pour deux violons et basse continue en la majeur, Op. 13 No. 3: I. Grave-Allegro
DR12 0.00 dB -15.90 dB 2:39 16-Ouverture pour deux violons et basse continue en la majeur, Op. 13 No. 3: II. Largo
DR13 0.00 dB -15.26 dB 2:24 17-Ouverture pour deux violons et basse continue en la majeur, Op. 13 No. 3: III. Allegro assai
DR12 -0.12 dB -15.04 dB 2:12 18-Scylla et Glaucus: Forlane
DR13 0.00 dB -15.48 dB 2:11 19-Scylla et Glaucus: 2ème Air, gay
DR12 0.00 dB -15.13 dB 2:03 20-Scylla et Glaucus: 3ème Air, vite
DR12 -1.66 dB -19.01 dB 1:35 13-Scylla et Glaucus : 1er Air en rondeau
––––––––––––––––––––––––––––––––––––––––

Number of tracks: 20
Official DR value: DR12

Samplerate: 88200 Hz
Channels: 2
Bits per sample: 24
Bitrate: 2647 kbps
Codec: FLAC
================================================================================



Thanks to the Original customer!