Tags
Language
Tags

Jeff Beck - Beck-Ola (1969/2015) [Official Digital Download 24-bit/96kHz]

Posted By: HDV
Jeff Beck - Beck-Ola (1969/2015) [Official Digital Download 24-bit/96kHz]

Jeff Beck Group - Beck-Ola (1969/2015)
FLAC (tracks) 24-bit/96 kHz | Time - 31:07 minutes | 702 MB
Studio Master, Official Digital Download | Artwork: Front cover

"Beck-Ola" is Jeff Beck's second album (and The Jeff Beck Group's first credited album) originally released in 1969. The album made it to the number 15 spot on the Billboard 200 and features covers "All Shook Up" and "Jailhouse Rock" as well as original material by the group. The album’s title puns on the name of the Rock-Ola jukebox company.

When it was originally released in June 1969, Beck-Ola, the Jeff Beck Group's second album, featured a famous sleeve note on its back cover: "Today, with all the hard competition in the music business, it's almost impossible to come up with anything totally original. So we haven't. However, this LP was made with the accent on heavy music. So sit back and listen and try and decide if you can find a small place in your heads for it." Beck was reacting to the success of peers and competitors like Cream and Led Zeppelin here, bands that had been all over the charts with a hard rock sound soon to be dubbed heavy metal, and indeed, his sound employs much the same brand of "heavy music" as theirs, with deliberate rhythms anchoring the beat, over which the guitar solos fiercely and the lead singer emotes. But he was also preparing listeners for the weakness of the material on an album that sounds somewhat thrown together. Two songs are rehauls of Elvis Presley standards ("All Shook Up" and "Jailhouse Rock") and one is an instrumental interlude contributed by pianist Nicky Hopkins, promoted from sideman to group member, with the rest being band-written songs that basically serve as platforms for Beck's improvisations. But that doesn't detract from the album's overall quality, due both to the guitar work and the distinctive vocals of Rod Stewart, and Beck-Ola easily could have been the album to establish the Jeff Beck Group as the equal of the other heavy bands of the day. Unfortunately, a series of misfortunes occurred. Beck canceled out of a scheduled appearance at Woodstock; he was in a car accident that sidelined him for over a year, and Stewart and bass player Ron Wood decamped to join Faces, breaking up the group. Nevertheless, Beck-Ola stands as a prime example of late-'60s British blues-rock and one of Beck's best records.

Tracklist:

01 - All Shook Up
02 - Spanish Boots
03 - Girl From Mill Valley
04 - Jailhouse Rock
05 - Plynth (Water Down the Drain)
06 - The Hangman's Knee
07 - Rice Pudding

Musicians:
Jeff Beck guitars
Rod Stewart - vocals
Nicky Hopkins - piano and organ
Ronnie Wood - bass
Tony Newman - drums

Analyzed: Jeff Beck / Beck-Ola
––––––––––––––––––––––––––––––––––––––––

DR Peak RMS Duration Track
––––––––––––––––––––––––––––––––––––––––
DR10 -0.72 dB -12.19 dB 4:56 01-All Shook Up
DR10 -0.71 dB -12.99 dB 3:39 02-Spanish Boots
DR10 -2.10 dB -16.61 dB 3:51 03-Girl From Mill Valley
DR9 -0.72 dB -11.44 dB 3:16 04-Jailhouse Rock
DR10 -1.20 dB -13.77 dB 3:10 05-Plynth (Water Down the Drain)
DR10 -0.90 dB -13.28 dB 4:53 06-The Hangman's Knee
DR11 -0.71 dB -15.20 dB 7:23 07-Rice Pudding
––––––––––––––––––––––––––––––––––––––––

Number of tracks: 7
Official DR value: DR10

Samplerate: 96000 Hz
Channels: 2
Bits per sample: 24
Bitrate: 2974 kbps
Codec: FLAC
================================================================================


Thanks to the Original customer!