Tags
Language
Tags

Jefre Cantu-Ledesma - Tracing Back the Radiance (2019) [Official Digital Download 24/48]

Posted By: delpotro
Jefre Cantu-Ledesma - Tracing Back the Radiance (2019) [Official Digital Download 24/48]

Jefre Cantu-Ledesma - Tracing Back the Radiance (2019)
FLAC (tracks) 24-bit/48 kHz | Front Cover | Time - 41:40 minutes | 402 MB
Electronic, Ambient | Label: Mexican Summer, Official Digital Download

On Tracing Back the Radiance, his most profound work to date, he finds them. Spiritual seeking was always at the root of Cantu-Ledesma's work. His very first release was named after a breathing technique in yoga, and here he name-checks the writings of Chinul, a Korean Buddhist monk from the 12th century.

Tracklist:
1. Palace Of Time (21:10)
2. Joy (05:00)
3. Tracing Back The Radiance (15:30)

foobar2000 1.4.1 / Dynamic Range Meter 1.1.1
log date: 2021-11-29 15:07:02

––––––––––––––––––––––––––––––––––––––––
Analyzed: Jefre Cantu-Ledesma / Tracing Back the Radiance
––––––––––––––––––––––––––––––––––––––––

DR Peak RMS Duration Track
––––––––––––––––––––––––––––––––––––––––
DR10 -0.20 dB -13.58 dB 21:10 01-Palace Of Time
DR8 -1.20 dB -13.30 dB 5:00 02-Joy
DR10 -0.75 dB -14.22 dB 15:30 03-Tracing Back The Radiance
––––––––––––––––––––––––––––––––––––––––

Number of tracks: 3
Official DR value: DR9

Samplerate: 48000 Hz
Channels: 2
Bits per sample: 24
Bitrate: 1245 kbps
Codec: FLAC
================================================================================


Thanks to the Original customer!