Tags
Language
Tags

Joan Chamorro & Marçal Perramon - Joan Chamorro Presenta Marçal Perramon (2021) [Official Digital Download]

Posted By:
Joan Chamorro & Marçal Perramon - Joan Chamorro Presenta Marçal Perramon (2021) [Official Digital Download]

Joan Chamorro & Marçal Perramon - Joan Chamorro Presenta Marçal Perramon (2021)
FLAC (tracks) 24-bit/44,1 kHz | Front Cover | Time - 76:05 minutes | 851 MB
Jazz, Big Band | Label: Associació Sant Andreu Jazz Band, Official Digital Download

Continuing the successful series in which Joan Chamorro – the driving force behind the Sant Andreu Jazz Band – promotes the young talents from our jazz scene trained in the Sant Andreu youth academy. We are talking about an album collection that has released the first albums by Andrea Motis, Rita Payés, Magalí Datzira, Eva Fernández and Joan Mar Sauqué, among others. This time, Chamorro and his band present Marçal Perramon, a saxophone player and artist in the series “Joan Chamorro presents…” And, as if that were not enough, the session will have a fabulous guest: Joe Magnarelli.

Tracklist:
1. The Night Has a Thousand Eyes (05:10)
2. Stardust (03:32)
3. Cedar’s Blues (03:10)
4. Like Someone In Love (03:52)
5. Jeannine (07:43)
6. Água de Beber (03:27)
7. On a Misty Night (05:21)
8. Like Sonny (04:48)
9. Jackie (03:26)
10. Cloudy (03:58)
11. Nature Boy (04:28)
12. Marshmallow (04:42)
13. Stars Fell On Alabama (06:55)
14. The Last Train From Overbrook (05:37)
15. Indian Summer (03:09)

foobar2000 1.4.1 / Dynamic Range Meter 1.1.1
log date: 2021-08-20 07:40:22

––––––––––––––––––––––––––––––––––––––––
Analyzed: Joan Chamorro & Marçal Perramon / Joan Chamorro Presenta Marçal Perramon
––––––––––––––––––––––––––––––––––––––––

DR Peak RMS Duration Track
––––––––––––––––––––––––––––––––––––––––
DR7 -0.05 dB -8.12 dB 5:29 01-The End of a Love Affair
DR6 -0.10 dB -7.96 dB 4:08 02-This Year's Kisses
DR7 0.00 dB -8.19 dB 4:54 03-Tristeza
DR6 -0.44 dB -8.93 dB 4:52 04-I Don’t Stand a Ghost of a Chance With You
DR7 -0.07 dB -8.68 dB 5:48 05-it’s All Right With Me
DR8 -0.07 dB -9.61 dB 4:48 06-I've Never Been In Love Before
DR8 -0.04 dB -9.46 dB 4:45 07-Nobody Else But Me
DR7 -0.40 dB -9.37 dB 6:01 08-Johnny Come Lately
DR7 -0.02 dB -7.96 dB 3:43 09-Little White Lies
DR8 -0.69 dB -9.64 dB 5:29 10-Harry's Last Stand
DR7 -0.10 dB -8.40 dB 5:48 11-Time to Smile
DR6 -0.03 dB -7.62 dB 4:13 12-Bahia Com H
DR8 -0.04 dB -9.71 dB 6:01 13-Bluesuses
DR7 -0.10 dB -8.32 dB 6:08 14-Hey, Look!
DR8 0.00 dB -9.65 dB 3:58 15-I'm Confessin' That I Love You
––––––––––––––––––––––––––––––––––––––––

Number of tracks: 15
Official DR value: DR7

Samplerate: 44100 Hz
Channels: 2
Bits per sample: 24
Bitrate: 1553 kbps
Codec: FLAC
================================================================================


Thanks to the Original customer!