Tags
Language
Tags

John Legend - Bigger Love (2020) [Official Digital Download]

Posted By: delpotro
John Legend - Bigger Love (2020) [Official Digital Download]

John Legend - Bigger Love (2020)
FLAC (tracks) 24-bit/44,1 kHz | Front Cover | Time - 55:57 minutes | 627 MB
R'n'B | Label: Columbia Records, Official Digital Download

“These songs are about joy, hope, and resilience,” John Legend tells Apple Music. “The power of the human spirit.” His upbeat seventh album Bigger Love was largely recorded in 2019, before a pandemic and mass protests swept the globe, but its message is no less relevant or uplifting: Love wins. Shaped by the same wrecking crew from his blockbuster Christmas album, including Raphael Saadiq as executive producer, the songs here serve as a bridge between vintage and modern Black music; he hat-tips The Flamingos and Marvin Gaye, reimagines trap drums, and flirts with Afro-Caribbean rhythms. Equally exciting are the young hitmakers (Tayla Parx, Cautious Clay, and Anderson .Paak are a few) and clever collaborations (bluesman Gary Clark Jr., rising reggae sensation Koffee) peppered throughout, making these instant classics feel unmistakably now.

Tracklist:
1. John Legend – Ooh Laa (02:59)
2. John Legend – Actions (02:54)
3. John Legend – I Do (02:47)
4. John Legend – One Life (03:14)
5. John Legend & Gary Clark Jr. – Wild (03:16)
6. John Legend – Bigger Love (02:50)
7. John Legend – U Move, I Move (feat. Jhené Aiko) (03:43)
8. John Legend – Favorite Place (02:48)
9. John Legend – Slow Cooker (04:22)
10. John Legend – Focused (03:02)
11. John Legend – Conversations in the Dark (03:55)
12. John Legend & Koffee – Don't Walk Away (03:40)
13. John Legend & Rapsody – Remember Us (04:51)
14. John Legend – I'm Ready (feat. Camper) (03:51)
15. John Legend – Always (03:26)
16. John Legend – Never Break (04:13)

foobar2000 1.4.1 / Dynamic Range Meter 1.1.1
log date: 2020-06-19 17:03:19

––––––––––––––––––––––––––––––––––––––––
Analyzed: John Legend / Bigger Love
––––––––––––––––––––––––––––––––––––––––

DR Peak RMS Duration Track
––––––––––––––––––––––––––––––––––––––––
DR5 -0.10 dB -6.22 dB 2:59 01-Ooh Laa
DR5 -0.43 dB -6.64 dB 2:54 02-Actions
DR4 -0.10 dB -6.03 dB 2:47 03-I Do
DR5 -0.10 dB -6.05 dB 3:15 04-One Life
DR5 -0.07 dB -7.04 dB 3:17 05-Wild
DR5 -0.10 dB -7.18 dB 2:50 06-Bigger Love
DR6 -0.08 dB -10.24 dB 3:44 07-U Move, I Move
DR6 -0.10 dB -7.73 dB 2:48 08-Favorite Place
DR5 -0.10 dB -7.52 dB 4:23 09-Slow Cooker
DR5 -0.07 dB -7.33 dB 3:02 10-Focused
DR6 -0.10 dB -10.10 dB 3:56 11-Conversations in the Dark
DR5 -0.10 dB -7.34 dB 3:40 12-Don't Walk Away
DR5 -0.09 dB -7.46 dB 4:51 13-Remember Us
DR6 -0.10 dB -7.72 dB 3:52 14-I'm Ready
DR5 -0.10 dB -7.54 dB 3:27 15-Always
DR7 -0.10 dB -10.70 dB 4:13 16-Never Break
––––––––––––––––––––––––––––––––––––––––

Number of tracks: 16
Official DR value: DR5

Samplerate: 44100 Hz
Channels: 2
Bits per sample: 24
Bitrate: 1467 kbps
Codec: FLAC
================================================================================


Thanks to the Original customer!