KennyHoopla & Travis Barker - SURVIVORS GUILT: THE MIXTAPE// (2021) [Official Digital Download 24/48]

Posted By: delpotro
KennyHoopla & Travis Barker - SURVIVORS GUILT: THE MIXTAPE// (2021) [Official Digital Download 24/48]

KennyHoopla & Travis Barker - SURVIVORS GUILT: THE MIXTAPE// (2021)
FLAC (tracks) 24-bit/48 kHz | Front Cover | Time - 20:44 minutes | 278 MB
Alternative Rock | Label: Arista Records, Official Digital Download

KennyHoopla is the latest US artist rising in the alternative/pop punk wave that’s towering over our heads this year. His breakthrough song, ‘Estella’ has been making the rounds on every nostalgic pop punk playlist since its release with its flowing abundance of youthful energy and guitar-driven pop/rock.

While I didn’t think he could top ‘Estella’, well, it looks like he just did it. The man’s second single ‘hollywood sucks’ comes stomping in with even bigger pop punk energy and sounds like it could appear on Blink-182’s Take Off Your Pants and Jacket. Expect this track to reach even more listeners and praise this time around — KennyHoopla is kinda killing it right now.

His latest single is the first taste of his forthcoming EP, Survivors Guilt: The Mixtape, coming at us everywhere on June 11. If ‘hollywood sucks’ is anything to go by, this release is going to stun us all.

Tracklist:
1. silence is also an answer// (03:20)
2. estella// (01:58)
3. turn back time// (02:33)
4. survivors guilt// (02:17)
5. hollywood sucks// (02:33)
6. inside of heaven's mouth, there is a sweet tooth// (02:11)
7. smoke break// (03:02)
8. 9-5 (love me)// (02:46)

foobar2000 1.4.1 / Dynamic Range Meter 1.1.1
log date: 2021-06-11 11:47:46

––––––––––––––––––––––––––––––––––––––––
Analyzed: KennyHoopla & Travis Barker / SURVIVORS GUILT: THE MIXTAPE//
––––––––––––––––––––––––––––––––––––––––

DR Peak RMS Duration Track
––––––––––––––––––––––––––––––––––––––––
DR5 -0.10 dB -6.48 dB 3:20 01-silence is also an answer//
DR4 -0.10 dB -5.24 dB 1:59 02-estella//
DR4 -0.10 dB -6.46 dB 2:34 03-turn back time//
DR4 -0.10 dB -5.44 dB 2:18 04-survivors guilt//
DR4 -0.10 dB -5.85 dB 2:33 05-hollywood sucks//
DR5 -0.10 dB -6.86 dB 2:11 06-inside of heaven's mouth, there is a sweet tooth//
DR4 -1.00 dB -6.27 dB 3:03 07-smoke break//
DR4 -0.10 dB -7.37 dB 2:46 08-9-5 (love me)//
––––––––––––––––––––––––––––––––––––––––

Number of tracks: 8
Official DR value: DR4

Samplerate: 48000 Hz
Channels: 2
Bits per sample: 24
Bitrate: 1802 kbps
Codec: FLAC
================================================================================


Thanks to the Original customer!