Les Récréations - Alessandro, Francesco & Domenico Scarlatti: Sonate a quattro (2021) [Official Digital Download 24/96]

Posted By: delpotro
Les Récréations - Alessandro, Francesco & Domenico Scarlatti: Sonate a quattro (2021) [Official Digital Download 24/96]

Les Récréations - Alessandro, Francesco & Domenico Scarlatti: Sonate a quattro (2021)
FLAC (tracks) 24-bit/96 kHz | Front Cover & Digital Booklet | Time - 59:20 minutes | 1,15 GB
Classical | Label: Ricercar, Official Digital Download

Alessandro Scarlatti’s Sonate a quattro were published in 1725, the year of his death. With their specific marking ‘senza cembalo’ (without harpsichord), these compositions for two violins, viola and cello appear to be, in a sense, the first string quartets in the modern sense of the term. The programme is completed by a few sonatas by his brother Francesco, the ‘London Scarlatti’, and Alessandro’s son Domenico, who had so thoroughly absorbed the contrapuntal tradition instilled in him by his father that some of his sonatas can also be played in quartet formation.

Tracklist:
1. Sonata 1a a quattro senza cembalo in F Minor: I. Grave (01:26)
2. Sonata 1a a quattro senza cembalo in F Minor: II. Allegro (01:59)
3. Sonata 1a a quattro senza cembalo in F Minor: III. Largo (02:22)
4. Sonata 1a a quattro senza cembalo in F Minor: IV. Allemanda (01:26)
5. Sonata 2nda a quattro senza cembalo in C Minor: I. Andante (02:50)
6. Sonata 2nda a quattro senza cembalo in C Minor: II. Grave (02:25)
7. Sonata 2nda a quattro senza cembalo in C Minor: III. 3/4 [Allegro] (01:12)
8. Sonata 2nda a quattro senza cembalo in C Minor: IV. Minuet (01:16)
9. Durezze e ligature (02:32)
10. Gagliarda del Principe di Venosa (01:29)
11. Sonata 3a a quattro senza cembalo in G Minor: I. 4/4 [Fuga] (02:26)
12. Sonata 3a a quattro senza cembalo in G Minor: II. Grave (02:05)
13. Sonata 3a a quattro senza cembalo in G Minor: III. 3/4 [Allegro] (02:14)
14. Sonata 3a a quattro senza cembalo in G Minor: IV. Minuet (01:18)
15. Sonata 4a a quattro senza cembalo in D Minor: I. Largo (02:12)
16. Sonata 4a a quattro senza cembalo in D Minor: II. Grave (01:31)
17. Sonata 4a a quattro senza cembalo in D Minor: III. Allegro (00:46)
18. Sonata 4a a quattro senza cembalo in D Minor: IV. Allegro (00:54)
19. Sonata 4a a quattro senza cembalo in D Minor: V. Minuet (01:10)
20. Sonata IX in D Major: I. Grave - Presto - Largo - Presto - Largo (03:10)
21. Sonata IX in D Major: II. Larghetto (02:26)
22. Sonata IX in D Major: III. Largo (01:23)
23. Sonata IX in D Major: IV. Presto (01:41)
24. Sonate in A Minor: I. Adagio (01:14)
25. Sonate in A Minor: II. Fuga in secundo tono (01:44)
26. Sonate in A Minor: III. Largo e coma sta (01:07)
27. Sonate in A Minor: IV. Baletto (01:50)
28. Sonata IV in E Minor: I. Largo - Andante (01:13)
29. Sonata IV in E Minor: II. Allegro (01:42)
30. Sonata IV in E Minor: III. Largo (01:48)
31. Sonata IV in E Minor: IV. [¢] (01:02)
32. Sonata K. 87 in B Minor (05:11)

foobar2000 1.4.1 / Dynamic Range Meter 1.1.1
log date: 2021-06-22 15:04:52

––––––––––––––––––––––––––––––––––––––––
Analyzed: Les Récréations / Alessandro, Francesco & Domenico Scarlatti: Sonate a quattro
––––––––––––––––––––––––––––––––––––––––

DR Peak RMS Duration Track
––––––––––––––––––––––––––––––––––––––––
DR10 -3.19 dB -17.68 dB 1:27 01-Scarlatti: Sonata 1a a quattro senza cembalo in fa minore: I. Grave
DR10 -0.66 dB -14.51 dB 2:00 02-Scarlatti: Sonata 1a a quattro senza cembalo in fa minore: II. Allegro
DR11 -1.35 dB -16.71 dB 2:23 03-Scarlatti: Sonata 1a a quattro senza cembalo in fa minore: III. Largo
DR11 -1.47 dB -15.50 dB 1:26 04-Scarlatti: Sonata 1a a quattro senza cembalo in fa minore: IV. Allemanda
DR11 -1.53 dB -16.40 dB 2:50 05-Scarlatti: Sonata 2nda a quattro senza cembalo in do minore: I. Andante
DR11 -2.60 dB -18.53 dB 2:25 06-Scarlatti: Sonata 2nda a quattro senza cembalo in do minore: II. Grave
DR11 -1.87 dB -17.03 dB 1:12 07-Scarlatti: Sonata 2nda a quattro senza cembalo in do minore: III. 3/4 [ALLEGRO]
DR11 -2.44 dB -17.89 dB 1:17 08-Scarlatti: Sonata 2nda a quattro senza cembalo in do minore: IV. Minuet
DR10 -3.20 dB -17.86 dB 2:33 09-Trabaci: Durezze e ligature
DR13 -1.75 dB -19.64 dB 1:29 10-Gesualdo: Gagliarda del Principe di Venosa
DR11 -0.46 dB -15.97 dB 2:26 11-Scarlatti: Sonata 3a a quattro senza cembalo in sol minore: I. 4/4 [Fuga]
DR10 -2.75 dB -20.23 dB 2:06 12-Scarlatti: Sonata 3a a quattro senza cembalo in sol minore: II. Grave
DR12 -1.41 dB -16.84 dB 2:15 13-Scarlatti: Sonata 3a a quattro senza cembalo in sol minore: III. 3/4 [Allegro]
DR12 -2.71 dB -17.45 dB 1:18 14-Scarlatti: Sonata 3a a quattro senza cembalo in sol minore: IV. Minuet
DR11 -2.06 dB -16.77 dB 2:12 15-Scarlatti: Sonata 4a a quattro senza cembalo in re minore: I. Largo
DR11 -4.62 dB -19.27 dB 1:32 16-Scarlatti: Sonata 4a a quattro senza cembalo in re minore: II. Grave
DR11 -2.29 dB -16.52 dB 0:47 17-Scarlatti: Sonata 4a a quattro senza cembalo in re minore: III. Allegro
DR11 -1.66 dB -16.53 dB 0:54 18-Scarlatti: Sonata 4a a quattro senza cembalo in re minore: IV. Allegro
DR11 -2.78 dB -17.29 dB 1:10 19-Scarlatti: Sonata 4a a quattro senza cembalo in re minore: V. Minuet
DR12 -2.63 dB -18.03 dB 3:10 20-Scarlatti: Sonata IX in re maggiore: I. Grave-Presto-Largo-Presto-Largo
DR11 -2.19 dB -16.26 dB 2:26 21-Scarlatti: Sonata IX in re maggiore: II. Larghetto
DR12 -3.39 dB -18.02 dB 1:23 22-Scarlatti: Sonata IX in re maggiore: III. Largo
DR11 -1.44 dB -16.49 dB 1:42 23-Scarlatti: Sonata IX in re maggiore: IV. Presto
DR10 -2.31 dB -17.76 dB 1:14 24-Scarlatti: Sonate in la minore: I. Adagio
DR11 -2.46 dB -16.48 dB 1:45 25-Scarlatti: Sonate in la minore: II. Fuga in secundo tono
DR10 -2.90 dB -17.54 dB 1:08 26-Scarlatti: Sonate in la minore: III. Largo e coma sta
DR12 -1.88 dB -17.35 dB 1:50 27-Scarlatti: Sonate in la minore: IV. Baletto
DR10 -1.65 dB -16.43 dB 1:14 28-Scarlatti: Sonata IV in mi minore: I. Largo-Andante
DR11 -1.83 dB -16.34 dB 1:43 29-Scarlatti: Sonata IV in mi minore: II. Allegro
DR12 -3.61 dB -19.84 dB 1:49 30-Scarlatti: Sonata IV in mi minore : I. Largo
DR11 -3.23 dB -16.52 dB 1:03 31-Scarlatti: Sonata IV in mi minore: III. [¢]
DR12 -2.45 dB -17.86 dB 5:12 32-Scarlatti: Sonata K. 87 in si minore
––––––––––––––––––––––––––––––––––––––––

Number of tracks: 32
Official DR value: DR11

Samplerate: 96000 Hz
Channels: 2
Bits per sample: 24
Bitrate: 2687 kbps
Codec: FLAC
================================================================================


Thanks to the Original customer!