Tags
Language
Tags

Linus Roth - Bach: Solo Violin Partitas (2022) [Official Digital Download 24/96]

Posted By: delpotro
Linus Roth - Bach: Solo Violin Partitas (2022) [Official Digital Download 24/96]

Linus Roth - Bach: Solo Violin Partitas (2022)
FLAC (tracks) 24-bit/96 kHz | Front Cover | Time - 81:52 minutes | 1,54 GB
Classical | Label: Evil Penguin Classic, Official Digital Download

A historically informed performance of J.S Bach's Solo Violin Partitas by virtuoso violinist Linus Roth.

The cycle of six solo Sonatas and Partitas by J.S. Bach is arguably one of the most powerful and most important compositions in musical history. These works have been with Linus Roth since he was nine years old, when he first learned the Gigue from the E major Partita, moving on by the age of twelve to the first Fugue in G minor to tackling at fifteen the Ciaconna, which represents a cosmos in its own right. By seventeen, Roth had finally learned the entire oeuvre for the first time and since then he is fortunate to have been able to grow as a musician through the constant and welcome challenge of interpreting these remarkable works.

Bach did not write 'Six Solos' on the cover of the score, but instead wrote 'Sei Solo' in Italian, which can have two meanings: the word 'Sei' can be translated both as the number six and also as 'You are'. 'You are alone' - Bach is unlikely to have left something so important to chance or to be playing a simple word game. This announcement if it is even to be seen as a reminder from the composer to the performer - must be taken seriously and Linus has always viewed it as an invitation to interpret the music as freely as the musical text allows, which for him became a guiding principle in his quest for his own interpretation.

Linus Roth, who received the ECHO KLASSIK Award in 2006 as 'Best Newcomer' for his debut CD on EMI, was honoured with his second ECHO award in 2017 for his recording of the violin concertos by Shostakovich and Tchaikovsky with the London Symphony Orchestra under Thomas Sanderling.

Linus Roth plays on the 1703 Stradivarius violin 'Dancla' on generous loan from the music foundation of the L-Bank Baden-Wurttemberg.

Tracklist:
1. Violin Partita No. 1 in B Minor, BWV 1002: I. Allemanda (07:11)
2. Violin Partita No. 1 in B Minor, BWV 1002: II. Double (03:27)
3. Violin Partita No. 1 in B Minor, BWV 1002: III. Courante (03:20)
4. Violin Partita No. 1 in B Minor, BWV 1002: IV. Double (03:57)
5. Violin Partita No. 1 in B Minor, BWV 1002: V. Sarabande (03:52)
6. Violin Partita No. 1 in B Minor, BWV 1002: VI. Double (02:52)
7. Violin Partita No. 1 in B Minor, BWV 1002: VII. Tempo di Bourrée (03:47)
8. Violin Partita No. 1 in B Minor, BWV 1002: VIII. Double (03:32)
9. Violin Partita No. 2 in D Minor, BWV 1004: I. Allemande (04:23)
10. Violin Partita No. 2 in D Minor, BWV 1004: II. Courante (03:14)
11. Violin Partita No. 2 in D Minor, BWV 1004: III. Sarabande (04:12)
12. Violin Partita No. 2 in D Minor, BWV 1004: IV. Gigue (04:36)
13. Violin Partita No. 2 in D Minor, BWV 1004: V. Ciaccona (14:50)
14. Violin Partita No. 3 in E Major, BWV 1006: I. Preludio (03:59)
15. Violin Partita No. 3 in E Major, BWV 1006: II. Loure (04:25)
16. Violin Partita No. 3 in E Major, BWV 1006: III. Gavotte en Rondeau (03:00)
17. Violin Partita No. 3 in E Major, BWV 1006: IV. Menuet I (01:46)
18. Violin Partita No. 3 in E Major, BWV 1006: V. Menuet II (01:35)
19. Violin Partita No. 3 in E Major, BWV 1006: VI. Bourrée (01:39)
20. Violin Partita No. 3 in E Major, BWV 1006: VII. Gigue (02:07)

foobar2000 1.4.1 / Dynamic Range Meter 1.1.1
log date: 2022-03-11 10:50:15

––––––––––––––––––––––––––––––––––––––––
Analyzed: Linus Roth / Bach: Solo Violin Partitas
––––––––––––––––––––––––––––––––––––––––

DR Peak RMS Duration Track
––––––––––––––––––––––––––––––––––––––––
DR13 -4.60 dB -21.18 dB 7:11 01-Violin Partita No. 1 in B Minor, BWV 1002: I. Allemanda
DR12 -8.18 dB -24.08 dB 3:28 02-Violin Partita No. 1 in B Minor, BWV 1002: II. Double
DR15 -4.60 dB -23.01 dB 3:20 03-Violin Partita No. 1 in B Minor, BWV 1002: III. Courante
DR13 -5.20 dB -20.82 dB 3:57 04-Violin Partita No. 1 in B Minor, BWV 1002: IV. Double
DR12 -6.99 dB -22.70 dB 3:53 05-Violin Partita No. 1 in B Minor, BWV 1002: V. Sarabande
DR13 -5.41 dB -23.69 dB 2:52 06-Violin Partita No. 1 in B Minor, BWV 1002: VI. Double
DR13 -4.69 dB -20.96 dB 3:48 07-Violin Partita No. 1 in B Minor, BWV 1002: VII. Tempo di Bourrée
DR12 -5.01 dB -21.04 dB 3:32 08-Violin Partita No. 1 in B Minor, BWV 1002: VIII. Double
DR14 -0.32 dB -20.18 dB 4:23 09-Violin Partita No. 2 in D Minor, BWV 1004: I. Allemande
DR12 -4.03 dB -21.07 dB 3:14 10-Violin Partita No. 2 in D Minor, BWV 1004: II. Courante
DR12 -5.77 dB -22.66 dB 4:12 11-Violin Partita No. 2 in D Minor, BWV 1004: III. Sarabande
DR14 -2.25 dB -20.50 dB 4:36 12-Violin Partita No. 2 in D Minor, BWV 1004: IV. Gigue
DR14 -1.45 dB -20.39 dB 14:50 13-Violin Partita No. 2 in D Minor, BWV 1004: V. Ciaccona
DR11 -3.90 dB -18.40 dB 4:00 14-Violin Partita No. 3 in E Major, BWV 1006: I. Preludio
DR13 -4.94 dB -21.77 dB 4:25 15-Violin Partita No. 3 in E Major, BWV 1006: II. Loure
DR13 -1.19 dB -18.86 dB 3:00 16-Violin Partita No. 3 in E Major, BWV 1006: III. Gavotte en Rondeau
DR12 -5.17 dB -20.48 dB 1:46 17-Violin Partita No. 3 in E Major, BWV 1006: IV. Menuet I
DR12 -4.22 dB -21.33 dB 1:35 18-Violin Partita No. 3 in E Major, BWV 1006: V. Menuet II
DR14 -3.31 dB -19.94 dB 1:40 19-Violin Partita No. 3 in E Major, BWV 1006: VI. Bourrée
DR12 -3.55 dB -19.93 dB 2:08 20-Violin Partita No. 3 in E Major, BWV 1006: VII. Gigue
––––––––––––––––––––––––––––––––––––––––

Number of tracks: 20
Official DR value: DR13

Samplerate: 96000 Hz
Channels: 2
Bits per sample: 24
Bitrate: 2669 kbps
Codec: FLAC
================================================================================


Thanks to the Original customer!