Tags
Language
Tags

Linus Roth - Bach: Solo Violin Sonatas (2021) [Official Digital Download 24/96]

Posted By: delpotro
Linus Roth - Bach: Solo Violin Sonatas (2021) [Official Digital Download 24/96]

Linus Roth - Bach: Solo Violin Sonatas (2021)
FLAC (tracks) 24-bit/96 kHz | Front Cover | Time - 68:13 minutes | 1,27 GB
Classical | Label: Evil Penguin Classics, Official Digital Download

The cycle of six solo Sonatas and Partitas by J.S. Bach is arguably one of the most powerful and most important compositions in musical history. These works have been with Linus Roth since he was nine years old, when he first learned the Gigue from the E major Partita, moving on by the age of twelve to the first Fugue in G minor to tackling at fifteen the Ciaconna, which represents a cosmos in its own right. By seventeen, Roth had finally learned the entire oeuvre for the first time and since then he is fortunate to have been able to grow as a musician through the constant and welcome challenge of interpreting these remarkable works.

Bach did not write ‘Six Solos’ on the cover of the score, but instead wrote ‘Sei Solo’ in Italian, which can have two meanings: the word ‘Sei‘ can be translated both as the number six and also as ‘You are’. ‘You are alone’ - Bach is unlikely to have left something so important to chance or to be playing a simple word game. This announcement – if it is even to be seen as a reminder from the composer to the performer - must be taken seriously and Linus has always viewed it as an invitation to interpret the music as freely as the musical text allows, which for him became a guiding principle in his quest for his own interpretation.

This recording was made during lockdown, in which all of our lives have had to be reduced to a minimum in almost every area. The chance to renew the intense preoccupation with this miraculous music in preparation for the recording was a huge privilege as it allowed Linus an escape into a spiritual freedom which helped him greatly on a personal level at this time.

Not only did Roth's teachers and the interpretations of great violinists have a huge influence on how he plays Bach, but also his preoccupation with the original text and with what is known as ‘historically informed performance practice’, in particular the experience of playing with the type of convex Baroque bow that was used in Bach’s time. Due to its bend and the different weight distribution, it has a different nature to the concave curved bow used today, which leads to a slight decrescendo phrasing where several notes are slurred together towards the tip of the bow. In Linus' opinion, the modern bow suits the modern violin better and enables a wider range of sounds, which is why he tries to translate these Baroque-style experiences to the modern bow.

While the slurs and other details in the musical text were not always adhered to in years gone by, further meticulous examinations of the text have resulted in music editions that faithfully reproduce all the details of Bach’s handwriting, yielding fascinating results.

Bach completed the Six Solo Sonatas and Partitas in 1720 in Koethen when he was appointed conductor of the court there. It was the only office he held in which he was not exclusively committed to ‘musica sacra’. Nevertheless, the three solo Sonatas follow the form of the so- called ‘Sonata da Chiesa’ or Church Sonata. They each consist of four movements in the order slow-fast-slower-fast/er. The first movement is a free prelude in improvisational character, followed by a four-voiced Fugue. The third movement is song-like and the fourth resembles a brilliant Toccata.

Tracklist:
1. Violin Sonata No. 1 in G minor, BWV 1001: I. Adagio (04:12)
2. Violin Sonata No. 1 in G minor, BWV 1001: II. Fuga (05:45)
3. Violin Sonata No. 1 in G minor, BWV 1001 : III. Siciliana (03:19)
4. Violin Sonata No. 1 in G minor, BWV 1001: IV. Presto (03:44)
5. Violin Sonata No. 2 in A minor, BWV 1003: I. Grave (04:28)
6. Violin Sonata No. 2 in A minor, BWV 1003: II. Fuga (08:40)
7. Violin Sonata No. 2 in A minor, BWV 1003 : III. Andante (06:13)
8. Violin Sonata No. 2 in A minor, BWV 1003: IV. Allegro (06:45)
9. Violin Sonata No. 3 in C major, BWV 1005: I. Adagio (04:44)
10. Violin Sonata No. 3 in C major, BWV 1005: II. Fuga (11:01)
11. Violin Sonata No. 3 in C major, BWV 1005: III. Largo (03:25)
12. Violin Sonata No. 3 in C major, BWV 1005: IV. Allegro assai (05:51)

foobar2000 1.4.1 / Dynamic Range Meter 1.1.1
log date: 2022-03-13 12:30:14

––––––––––––––––––––––––––––––––––––––––
Analyzed: Linus Roth / Bach: Solo Violin Sonatas
––––––––––––––––––––––––––––––––––––––––

DR Peak RMS Duration Track
––––––––––––––––––––––––––––––––––––––––
DR14 -2.74 dB -21.04 dB 4:13 01-Violin Sonata No. 1 in G minor, BWV 1001: I. Adagio
DR14 -0.27 dB -18.14 dB 5:45 02-Violin Sonata No. 1 in G minor, BWV 1001: II. Fuga
DR14 -3.78 dB -22.27 dB 3:19 03-Violin Sonata No. 1 in G minor, BWV 1001 : III. Siciliana
DR13 -2.34 dB -19.20 dB 3:45 04-Violin Sonata No. 1 in G minor, BWV 1001: IV. Presto
DR12 -1.82 dB -20.44 dB 4:28 05-Violin Sonata No. 2 in A minor, BWV 1003: I. Grave
DR13 -1.18 dB -18.67 dB 8:40 06-Violin Sonata No. 2 in A minor, BWV 1003: II. Fuga
DR12 -5.35 dB -23.63 dB 6:13 07-Violin Sonata No. 2 in A minor, BWV 1003 : III. Andante
DR14 -0.93 dB -18.81 dB 6:46 08-Violin Sonata No. 2 in A minor, BWV 1003: IV. Allegro
DR12 -6.14 dB -22.93 dB 4:45 09-Violin Sonata No. 3 in C major, BWV 1005: I. Adagio
DR14 0.00 dB -19.57 dB 11:02 10-Violin Sonata No. 3 in C major, BWV 1005: II. Fuga
DR13 -5.91 dB -23.57 dB 3:25 11-Violin Sonata No. 3 in C major, BWV 1005: III. Largo
DR13 -2.99 dB -19.44 dB 5:52 12-Violin Sonata No. 3 in C major, BWV 1005: IV. Allegro assai
––––––––––––––––––––––––––––––––––––––––

Number of tracks: 12
Official DR value: DR13

Samplerate: 96000 Hz
Channels: 2
Bits per sample: 24
Bitrate: 2675 kbps
Codec: FLAC
================================================================================


Thanks to the Original customer!