Tags
Language
Tags

Lord Of The Lost - Swan Symphonies III (Instrumental Soundtrack Version) (2020) [Official Digital Download]

Posted By: El Misha
Lord Of The Lost - Swan Symphonies III (Instrumental Soundtrack Version) (2020) [Official Digital Download]

Lord Of The Lost - Swan Symphonies III (Instrumental Soundtrack Version) (2020)
FLAC (tracks) 24-bit/44.10 kHz | Time - 01:30:47 | 982 MB
Studio Master, Official Digital Download | Artwork: Front cover

Employing a sinister blend of goth-metal and dark industrial rock, Germany's Lord of the Lost was founded in 2007 by vocalist/guitarist Chris Harms, who had previously fronted Hamburg-based gloom-rockers Philiae.



Tracklist:

CD 1
1. A Splintered Mind ((Swan Symphonies III Version) [Instrumental]) 04:44
2. A One Ton Heart ((Swan Symphonies III Version) [Instrumental]) 03:50
3. Dying on the Moon ((Swan Symphonies III Version) [Instrumental]) 04:00
4. Zunya ((Swan Symphonies III Version) [Instrumental]) 03:54
5. Unfeel ((Swan Symphonies III Version) [Instrumental]) 03:29
6. Deathless ((Swan Symphonies III Version) [Instrumental]) 04:43
7. Agape ((Swan Symphonies III Version) [Instrumental]) 03:34
8. Hurt Again ((Swan Symphonies III Version) [Instrumental]) 03:35
9. Amber ((Swan Symphonies III Version) [Instrumental]) 04:32
10. We Were Young ((Swan Symphonies III Version) [Instrumental]) 04:14

foobar2000 1.6.1 / Замер динамического диапазона (DR) 1.1.1
Дата отчёта: 2020-11-07 06:07:33

––––––––––––––––––––––––––––––––––––––––
Анализ: Lord Of The Lost / Swan Symphonies III
––––––––––––––––––––––––––––––––––––––––

DR Пики RMS Продолжительность трека
––––––––––––––––––––––––––––––––––––––––
DR8 -1.60 дБ -11.16 дБ 4:44 01-A Splintered Mind (Swan Symphonies III Version)
DR8 -1.60 дБ -11.46 дБ 3:50 02-A One Ton Heart (Swan Symphonies III Version)
DR8 -1.60 дБ -11.91 дБ 4:01 03-Dying On The Moon (Swan Symphonies III Version)
DR8 -1.60 дБ -11.47 дБ 3:55 04-Zunya (Swan Symphonies III Version)
DR8 -1.60 дБ -12.59 дБ 3:29 05-Unfeel (Swan Symphonies III Version)
DR8 -1.60 дБ -12.71 дБ 4:43 06-Deathless (Swan Symphonies III Version)
DR9 -1.60 дБ -14.15 дБ 3:34 07-Agape (Swan Symphonies III Version)
DR8 -1.60 дБ -11.62 дБ 3:36 08-Hurt Again (Swan Symphonies III Version)
DR8 -1.60 дБ -13.47 дБ 4:33 09-Amber (Swan Symphonies III Version)
DR9 -1.60 дБ -13.01 дБ 4:14 10-We Were Young (Swan Symphonies III Version)
––––––––––––––––––––––––––––––––––––––––

Количество треков: 10
Реальные значения DR: DR8

Частота: 44100 Гц
Каналов: 2
Разрядность: 24
Битрейт: 1479 кбит/с
Кодек: FLAC
================================================================================


CD 2
1. Loreley ((Swan Symphonies III Version) [Instrumental]) 03:43
2. Morgana ((Swan Symphonies III Version) [Instrumental]) 03:48
3. Black Halo ((Swan Symphonies III Version) [Instrumental]) 04:26
4. Cut Me Out ((Swan Symphonies III Version) [Instrumental]) 05:40
5. In Silence ((Swan Symphonies III Version) [Instrumental]) 03:52
6. Seven Days of Anavrin ((Swan Symphonies III Version) [Instrumental]) 05:04
7. My Heart Is Black ((Swan Symphonies III Version) [Instrumental]) 05:38
8. Letters to Home ((Swan Symphonies III Version) [Instrumental]) 18:01

foobar2000 1.6.1 / Замер динамического диапазона (DR) 1.1.1
Дата отчёта: 2020-11-07 06:07:42

––––––––––––––––––––––––––––––––––––––––
Анализ: Lord Of The Lost / Swan Symphonies III
––––––––––––––––––––––––––––––––––––––––

DR Пики RMS Продолжительность трека
––––––––––––––––––––––––––––––––––––––––
DR7 -1.60 дБ -10.40 дБ 3:44 01-Loreley (Swan Symphonies III Version)
DR7 -1.60 дБ -10.55 дБ 3:48 02-Morgana (Swan Symphonies III Version)
DR7 -1.60 дБ -10.80 дБ 4:26 03-Black Halo (Swan Symphonies III Version)
DR8 -1.60 дБ -12.11 дБ 5:41 04-Cut Me Out (Swan Symphonies III Version)
DR8 -1.60 дБ -11.73 дБ 3:53 05-In Silence (Swan Symphonies III Version)
DR8 -1.60 дБ -12.08 дБ 5:04 06-Seven Days Of Anavrin (Swan Symphonies III Version)
DR7 -1.60 дБ -10.96 дБ 5:38 07-My Heart Is Black (Swan Symphonies III Version)
DR8 -1.60 дБ -12.66 дБ 18:01 08-Letters To Home (Swan Symphonies III Version)
––––––––––––––––––––––––––––––––––––––––

Количество треков: 8
Реальные значения DR: DR8

Частота: 44100 Гц
Каналов: 2
Разрядность: 24
Битрейт: 1424 кбит/с
Кодек: FLAC
================================================================================


Thanks to the Original customer!