Antonio Banderas, Orquesta Filarmónica de Málaga & Marco Frisina - Marco Frisina: Passio Christi (2021) [Of. Digital Download]

Posted By: delpotro
Antonio Banderas, Orquesta Filarmónica de Málaga & Marco Frisina - Marco Frisina: Passio Christi (2021) [Of. Digital Download]

Antonio Banderas, Orquesta Filarmónica de Málaga & Marco Frisina - Marco Frisina: Passio Christi (2021)
FLAC (tracks) 24-bit/44,1 kHz | Front Cover & Digital Booklet | Time - 116:41 minutes | 1,08 GB
Classical, Sacred, Opera | Label: IBS Classical, Official Digital Download

The Opera\-Oratorio Passio Christi narrates the events of the Lords Passion from the Last Supper to the dawn of Resurrection. The story is told through the feelings and emotions of some of the characters who took part in it in various ways: Peter, Judas, the Virgin Mary, Mary Magdalene, the Cyrenean, the soldier Longinus and the Angels. Each character sings the verses of the saints and poets of the world in a different language (Italian, English, French, Russian, Spanish, Latin and ancient Greek) to represent the whole world before the mystery of human suffering. The dramatic structure of the Opera follows the ancient structure of the Sacred Representations: in fact, its original form is designed for dramatization and scenic action. The events of the Gospel are interspersed with the arias of the various characters, which constitute a sort of cinematographic still image.

Tracklist:
01. Frisina: Passio Christi: No. 1, Prologo. L'ultima cena
02. Frisina: Passio Christi: No. 2, Getsemani
03. Frisina: Passio Christi: No. 3, Il Sinedrio
04. Frisina: Passio Christi: No. 4, Rinnegamenti di Pietro
05. Frisina: Passio Christi: No. 5, Pianto di Pietro
06. Frisina: Passio Christi: No. 6, Rimorso di Giuda
07. Frisina: Passio Christi: No. 7, Pilato
08. Frisina: Passio Christi: No. 8, Flagellazione
09. Frisina: Passio Christi: No. 9, O visage
10. Frisina: Passio Christi: No. 10, La condanna
11. Frisina: Passio Christi: No. 11, Sulla via del Calvario
12. Frisina: Passio Christi: No. 12, He Never Spoke
13. Frisina: Passio Christi: No. 13, La crocifissione
14. Frisina: Passio Christi: No. 14, Il buon ladrone
15. Frisina: Passio Christi: No. 15, Giuda e Pietro
16. Frisina: Passio Christi: No. 16, Gesù e sua Madre
17. Frisina: Passio Christi: No. 17, Morte di Gesù
18. Frisina: Passio Christi: No. 18, La lancia
19. Frisina: Passio Christi: No. 19, Longino e deposizione
20. Frisina: Passio Christi: No. 20, Pianto di Maria
21. Frisina: Passio Christi: No. 21, Sepoltura
22. Frisina: Passio Christi: No. 22, Finale

foobar2000 1.4.1 / Dynamic Range Meter 1.1.1
log date: 2021-06-18 11:47:00

––––––––––––––––––––––––––––––––––––––––
Analyzed: Antonio Banderas, Orquesta Filarmónica de Málaga, Marco Frisina / Marco Frisina: Passio Christi
––––––––––––––––––––––––––––––––––––––––

DR Peak RMS Duration Track
––––––––––––––––––––––––––––––––––––––––
DR11 -6.96 dB -24.19 dB 7:31 01-Frisina: Passio Christi: No. 1, Prologo. L'ultima cena
DR12 -0.23 dB -17.98 dB 13:47 02-Frisina: Passio Christi: No. 2, Getsemani
DR12 0.00 dB -17.34 dB 5:00 03-Frisina: Passio Christi: No. 3, Il Sinedrio
DR14 -0.72 dB -21.12 dB 3:14 04-Frisina: Passio Christi: No. 4, Rinnegamenti di Pietro
DR13 -3.24 dB -21.29 dB 3:44 05-Frisina: Passio Christi: No. 5, Pianto di Pietro
DR12 -2.34 dB -20.83 dB 2:43 06-Frisina: Passio Christi: No. 6, Rimorso di Giuda
DR13 -0.57 dB -18.19 dB 8:59 07-Frisina: Passio Christi: No. 7, Pilato
DR12 -0.63 dB -16.40 dB 3:51 08-Frisina: Passio Christi: No. 8, Flagellazione
DR11 -2.96 dB -19.78 dB 7:38 09-Frisina: Passio Christi: No. 9, O visage
DR12 -0.63 dB -16.71 dB 3:40 10-Frisina: Passio Christi: No. 10, La condanna
DR11 -3.44 dB -18.87 dB 5:55 11-Frisina: Passio Christi: No. 11, Sulla via del Calvario
DR11 -4.37 dB -20.09 dB 4:20 12-Frisina: Passio Christi: No. 12, He Never Spoke
DR11 -0.63 dB -18.46 dB 4:33 13-Frisina: Passio Christi: No. 13, La crocifissione
DR12 -3.53 dB -20.93 dB 2:46 14-Frisina: Passio Christi: No. 14, Il buon ladrone
DR13 -3.44 dB -22.05 dB 7:09 15-Frisina: Passio Christi: No. 15, Giuda e Pietro
DR13 -6.95 dB -24.02 dB 4:26 16-Frisina: Passio Christi: No. 16, Gesù e sua Madre
DR11 -0.62 dB -15.62 dB 1:01 17-Frisina: Passio Christi: No. 17, Morte di Gesù
DR11 -0.67 dB -18.94 dB 1:59 18-Frisina: Passio Christi: No. 18, La lancia
DR11 -4.62 dB -20.74 dB 6:24 19-Frisina: Passio Christi: No. 19, Longino e deposizione
DR12 -0.63 dB -17.34 dB 6:19 20-Frisina: Passio Christi: No. 20, Pianto di Maria
DR13 -6.14 dB -26.44 dB 2:59 21-Frisina: Passio Christi: No. 21, Sepoltura
DR11 -0.62 dB -15.71 dB 8:44 22-Frisina: Passio Christi: No. 22, Finale
––––––––––––––––––––––––––––––––––––––––

Number of tracks: 22
Official DR value: DR12

Samplerate: 44100 Hz
Channels: 2
Bits per sample: 24
Bitrate: 1408 kbps
Codec: FLAC
================================================================================


Thanks to the Original customer!