Tags
Language
Tags

Margo Price - Live From The Other Side (EP) (2021) [Official Digital Download 24/48]

Posted By: delpotro
Margo Price - Live From The Other Side (EP) (2021) [Official Digital Download 24/48]

Margo Price - Live From The Other Side (EP) (2021)
FLAC (tracks) 24-bit/48 kHz | Front Cover | Time - 14:15 minutes | 160 MB
Folk, Americana, Singer-Songwriter, Female Vocal | Label: Loma Vista Recordings, Official Digital Download

Margo Price has announced Live From the Other Side, a new EP out July 16 via Loma Vista Recordings. Live From the Other Side will contain a cover of The Beatles’ “Help” (also featuring Victoria, Russell, Franklin, and Armstrong), a solo arrangement of “That’s How Rumors Get Started,” and “Hey Child.”

n a statement, Price waxed poetically on the year since she released the thrilling That’s How Rumors Get Started. “I hope it kept you warm during those cold, lonely nights,” she said about Rumors. “Some things changed for the better, some for the worse. I know I am stronger and wiser than before but there is also an innocence lost, a naivety that we will never have back.”

She added, “I would also like to dedicate this EP to a hero of all of ours — Ms. Tina Turner. Her work has had such a massive influence on me ever since I heard her story and watched her movie What’s Love Got To Do With It when I was just ten years old. Her strength, talent, and truth have inspired me endlessly and I loved performing her interpretation of ‘Help’ by The Beatles. I believe in the power to manifest your own destiny and I offer Tina’s Buddhist mantra to anyone who may need it: ‘Namu Myoho Renge Kyo’ means ‘I honor the Universal Mystical Law of Cause and Effect.’”

Tracklist:
1. Hey Child (Live From The Other Side) (04:53)
2. Help (Live From The Other Side) (04:49)
3. That's How Rumors Get Started (Live From The Other Side) (04:33)

foobar2000 1.4.1 / Dynamic Range Meter 1.1.1
log date: 2021-07-16 16:04:37

––––––––––––––––––––––––––––––––––––––––
Analyzed: Margo Price / Live From The Other Side
––––––––––––––––––––––––––––––––––––––––

DR Peak RMS Duration Track
––––––––––––––––––––––––––––––––––––––––
DR6 -0.70 dB -9.56 dB 4:53 01-Hey Child (Live From The Other Side)
DR6 -0.70 dB -9.87 dB 4:49 02-Help (Live From The Other Side)
DR7 -0.70 dB -8.92 dB 4:34 03-That's How Rumors Get Started (Live From The Other Side)
––––––––––––––––––––––––––––––––––––––––

Number of tracks: 3
Official DR value: DR6

Samplerate: 48000 Hz
Channels: 2
Bits per sample: 24
Bitrate: 1595 kbps
Codec: FLAC
================================================================================


Thanks to the Original customer!