Martin Sweet - Digesting Decades (2021) [Official Digital Download]

Posted By: delpotro
Martin Sweet - Digesting Decades (2021) [Official Digital Download]

Martin Sweet - Digesting Decades (2021)
FLAC (tracks) 24-bit/44,1 kHz | Front Cover | Time - 34:43 minutes | 470 MB
Hard Rock, Glam Metal | Label: Martin Sweet, Official Digital Download

"I’m born in 1979 and have been playing and creating music since ever since I picked up an acoustic guitar at the age of 7 and at the same time I discovered rock n’ roll, which led me to join numrous rock bands as a teenager. After graduating from a music high school, I studied webdesign and programming for two years and later on joined the sleaze metal band CRASHDÏET in 2002. This has been my main profession ever since. On the side of that, I create t-shirt designs, lyric videos, websites and more for other bands as well as my own."

Tracklist:
01. The Look
02. Ask the Lonely
03. Break On Through (to the Other Side)
04. Another Day in Paradise
05. Black Forever
06. My Silver Lining
07. Wouldn't You Like to Know Me
08. Blitzkrieg Bop
09. Torpedo Girl
10. Tonight

foobar2000 1.4.1 / Dynamic Range Meter 1.1.1
log date: 2021-06-10 18:21:50

––––––––––––––––––––––––––––––––––––––––
Analyzed: Martin Sweet / Digesting Decades
––––––––––––––––––––––––––––––––––––––––

DR Peak RMS Duration Track
––––––––––––––––––––––––––––––––––––––––
DR7 -0.64 dB -8.71 dB 4:03 01-The Look
DR7 -1.62 dB -9.85 dB 3:54 02-Ask the Lonely
DR7 -2.08 dB -10.11 dB 2:28 03-Break On Through (to the Other Side)
DR7 -1.26 dB -10.32 dB 5:12 04-Another Day in Paradise
DR6 -0.10 dB -7.54 dB 3:12 05-Black Forever
DR7 -2.42 dB -10.69 dB 3:59 06-My Silver Lining
DR7 -2.22 dB -10.28 dB 3:12 07-Wouldn't You Like to Know Me
DR6 -0.90 dB -8.14 dB 2:16 08-Blitzkrieg Bop
DR7 -2.58 dB -10.53 dB 3:26 09-Torpedo Girl
DR8 -0.53 dB -9.83 dB 3:03 10-Tonight
––––––––––––––––––––––––––––––––––––––––

Number of tracks: 10
Official DR value: DR7

Samplerate: 44100 Hz
Channels: 2
Bits per sample: 24
Bitrate: 1615 kbps
Codec: FLAC
================================================================================


Thanks to the Original customer!