Tags
Language
Tags

Michael Giacchino - Incredibles 2 (Original Motion Picture Soundtrack) (2018) [Official Digital Download 24/96]

Posted By: El Misha
Michael Giacchino - Incredibles 2 (Original Motion Picture Soundtrack) (2018) [Official Digital Download 24/96]

Michael Giacchino - Incredibles 2 (Original Motion Picture Soundtrack) (2018)
FLAC (tracks) 24-bit/96 kHz | 1:15:05 | 1.46 GB
Studio Master, Official Digital Download | Artwork: Front cover

“Incredibles 2” is a 2018 American 3D computer-animated superhero film, produced by Pixar Animation Studios for Walt Disney Pictures. Written and directed by Brad Bird, it is the sequel to 2004’s The Incredibles. The plot follows the Parr family as they attempt to put superheroes back in the spotlight while dealing with normal life, only to combat a new foe who seeks to turn the general public against all supers. While several of the characters and voices from the previous film return, the sequel includes new characters voiced by Bob Odenkirk, Catherine Keener, Sophia Bush and Bill Wise. Michael Giacchino returned to write the score.

Composer Michael Giacchino grew up fascinated with both movies and music, and he went on to an ideal career writing scores for a number of acclaimed films, television series, and video games. Giacchino was born in Riverside Township, New Jersey on October 10, 1967 and grew up in nearby Edgewater Park. As a child, he developed an interest in animation and began making stop-motion cartoons, but discovered his favorite part was selecting the music that would match the action. After high school, Giacchino received a degree in film production at New York's School of Visual Arts, and then went on to study music at Lincoln Center's Julliard School. Giacchino supported himself as a publicist for the New York offices of Universal Pictures and Disney, and after completing his studies, he relocated to Burbank, California, where he worked for Disney's feature film publicity department. He moved on to Disney Interactive, assisting with production on video game projects as he continued to hone his craft in music.

After contributing music to several Disney games, he took a position with Dreamworks Interactive in 1997 and scored the video game The Lost World: Jurassic Park, released as a tie-in with the sci-fi blockbuster; the same year, he also scored a low-budget live-action thriller, Legal Deceit. Giacchino composed scores for a number of other video games, including the Medal of Honor and Call of Duty franchises, and in 2001, when producer J.J. Abrams was assembling his creative team for the television series Alias, he invited Giacchino to write music for the show, having been impressed with his video game work.

After working together successfully on Alias, Abrams hired Giacchino to compose music for the cult favorite series Lost, which earned him a Grammy Award for Outstanding Dramatic Score in 2005; Giacchino also wrote music for Abrams' short-lived but critically acclaimed show Fringe. In 2004, Brad Bird invited Giacchino to write the music for the Pixar animated feature The Incredibles; it was the first of several projects he scored for Pixar, including Ratatouille, Cars 2, and Up, the latter of which earned him an Academy Award in 2010, as well as a Grammy Award for the film's soundtrack album.

Since then, Giacchino has maintained a busy schedule scoring major projects such as Mission Impossible III, Cloverfield, Star Trek (2009), Let Me In, and Super 8. Giacchino also occasionally writes symphonic pieces, including "Camden 2000," which was commissioned for Camden, New Jersey's Haddonfield Symphony and debuted at a fundraising event for the non-profit Heart of Camden Housing Corporation. Giacchino also wrote new music to accompany the Space Mountain ride at Disney theme parks in the United States and Hong Kong.

He was involved with a number of high-profile film projects in 2015, which would prove to be a banner year for the composer. Reuniting with director Brad Bird and Pixar, he scored the animated film Inside Out, as well as Disney's futuristic Tomorrowland and, biggest of all, the summer blockbuster Jurassic World. The following year, Giacchino returned with several more high-profile productions, including scores for Doctor Strange, Star Trek Beyond, and Zootopia.

Also in 2016, it was announced that he had replaced composer Alexandre Desplat on director Gareth Edwards' highly anticipated Rogue One: A Star Wars Story. The score was released alongside the movie in December 2016, and was commended for its fresh, innovative sound palette while incorporating favorite and revered elements of John Williams' score for the previous Star Wars installments. In 2017, Giacchino supplied three more blockbuster scores with The War for the Planet of the Apes, Marvel's Spider-Man: Homecoming, and Disney/Pixar's Coco. Another Disney/Pixar effort, Incredibles 2, arrived in 2018, along with his second outing with the dinosaurs on Jurassic World: Fallen Kingdom. ~ Mark Deming



Tracklist:

01. Michael Giacchino - Episode 2
02. Michael Giacchino - A Tony Perspective
03. Michael Giacchino - Consider Yourselves Undermined!
04. Michael Giacchino - A Matter of Perception
05. Michael Giacchino - Diggin' the New Digs
06. Michael Giacchino - This Ain't My Super-Suit?
07. Michael Giacchino - Elastigirl Is Back
08. Michael Giacchino - Train of Taut
09. Michael Giacchino - Rocky vs. Jack-Jack
10. Michael Giacchino - Ambassador Ambush
11. Michael Giacchino - Hero Worship
12. Michael Giacchino - Searching for a Screenslaver
13. Michael Giacchino - Super Legal Again
14. Michael Giacchino - Renouncing the Renunciation
15. Michael Giacchino - World's Worst Babysitters
16. Michael Giacchino - Helen of Ploy
17. Michael Giacchino - A Dash of Reality
18. Michael Giacchino - Hydrofoiled Again
19. Michael Giacchino - Jack Splat
20. Michael Giacchino - A Bridge Too Parr
21. Michael Giacchino - Together Forever and Deavor
22. Michael Giacchino - Elastigirl's Got a Plane to Catch
23. Michael Giacchino - Looks Like I Picked the Wrong Week to Quit Oxygen
24. Michael Giacchino - Happily After-Deavor
25. Michael Giacchino - Out and a Bout
26. Michael Giacchino - Incredits 2
27. Michael Giacchino - Here Comes Elastigirl - Elastigirl's Theme
28. Michael Giacchino - Chill or Be Chilled - Frozone's Theme
29. Michael Giacchino - Pow! Pow! Pow! - Mr. Incredible's Theme
30. Michael Giacchino - Devtechno!
31. Michael Giacchino - Chad Tonight Talk Show Theme
32. Michael Giacchino - Chad Tonight Newscast Bumper
33. DCappella - Here Comes Elastigirl - Elastigirl's Theme (A Cappella)
34. DCappella - Chill or Be Chilled - Frozone's Theme (A Cappella)
35. DCappella - Pow! Pow! Pow! - Mr. Incredible's Theme (A Cappella)
36. DCappella - The Glory Days (A Cappella)

foobar2000 1.3.16 / Dynamic Range Meter 1.1.1
log date: 2018-06-15 16:42:08

––––––––––––––––––––––––––––––––––––––––
Analyzed: DCappella / Incredibles 2 (Original Motion Picture Soundtrack) (1-4)
Michael Giacchino / Incredibles 2 (Original Motion Picture Soundtrack) (5-36)
––––––––––––––––––––––––––––––––––––––––

DR Peak RMS Duration Track
––––––––––––––––––––––––––––––––––––––––
DR9 -0.70 dB -10.67 dB 1:21 33-Here Comes Elastigirl (Elastigirl's Theme)
DR11 -0.70 dB -13.80 dB 1:37 34-Chill or Be Chilled (Frozone's Theme)
DR10 -0.70 dB -13.31 dB 1:31 35-Pow! Pow! Pow! (Mr. Incredible's Theme)
DR9 -0.70 dB -12.37 dB 1:39 36-The Glory Days
DR12 -0.70 dB -18.83 dB 0:51 01-Episode 2
DR12 -0.31 dB -19.24 dB 2:09 02-A Tony Perspective
DR8 -0.69 dB -11.40 dB 5:12 03-Consider Yourselves Undermined!
DR14 -0.70 dB -21.85 dB 1:50 04-A Matter of Perception
DR8 -0.70 dB -13.47 dB 1:42 05-Diggin' the New Digs
DR13 -6.00 dB -24.00 dB 0:57 06-This Ain't My Super-Suit
DR8 -0.70 dB -11.21 dB 1:00 07-Elastigirl Is Back
DR7 -0.69 dB -10.03 dB 3:17 08-Train of Taut
DR15 -0.70 dB -21.10 dB 1:58 09-Rocky vs. Jack-Jack
DR8 -0.70 dB -12.54 dB 2:30 10-Ambassador Ambush
DR12 -4.01 dB -23.59 dB 1:09 11-Hero Worship
DR8 -0.69 dB -15.28 dB 4:40 12-Searching for a Screenslaver
DR10 -0.70 dB -15.05 dB 0:43 13-Super Legal Again
DR10 -0.70 dB -16.96 dB 1:39 14-Renouncing the Renunciation
DR8 -0.68 dB -11.09 dB 1:34 15-World's Worst Babysitters
DR9 -0.69 dB -14.18 dB 0:56 16-Helen of Ploy
DR9 -0.70 dB -13.97 dB 2:04 17-A Dash of Reality
DR10 -0.70 dB -15.79 dB 3:53 18-Hydrofoiled Again
DR14 -0.69 dB -19.98 dB 1:30 19-Jack Splat
DR9 -0.69 dB -13.67 dB 4:17 20-A Bridge Too Parr
DR8 -0.68 dB -11.29 dB 1:46 21-Together Forever and Deavor
DR8 -0.69 dB -13.09 dB 2:59 22-Elastigirl's Got a Plane to Catch
DR7 -0.69 dB -9.33 dB 1:59 23-Looks Like I Picked the Wrong Week to Quit Oxygen
DR11 -0.70 dB -17.11 dB 1:15 24-Happily After-Deavor
DR9 -0.70 dB -14.34 dB 0:37 25-Out and a Bout
DR8 -0.68 dB -11.75 dB 9:51 26-Incredits 2
DR7 -0.68 dB -9.39 dB 1:23 27-Here Comes Elastigirl (Elastigirl's Theme)
DR9 -0.69 dB -12.14 dB 1:41 28-Chill or Be Chilled (Frozone's Theme)
DR8 -0.68 dB -11.59 dB 1:31 29-Pow! Pow! Pow! (Mr. Incredible's Theme)
DR8 -0.70 dB -10.52 dB 1:54 30-Devtechno!
DR13 -0.70 dB -13.47 dB 0:07 31-Chad Tonight Talk Show Theme
DR6 -0.70 dB -13.25 dB 0:06 32-Chad Tonight Newscast Bumper
––––––––––––––––––––––––––––––––––––––––

Number of tracks: 36
Official DR value: DR10

Samplerate: 96000 Hz
Channels: 2
Bits per sample: 24
Bitrate: 2428 kbps
Codec: FLAC
================================================================================


Thanks to the Original customer!