Tags
Language
Tags

Morgan James - A Very Magnetic Christmas (2021) [Official Digital Download 24/96]

Posted By: El Misha
Morgan James - A Very Magnetic Christmas (2021) [Official Digital Download 24/96]

Morgan James - A Very Magnetic Christmas (2021)
FLAC (tracks) 24-bit/96 kHz | Time - 47:28 | 933 MB
Studio Master, Official Digital Download | Artwork: Front cover

Morgan James has announced "A Very Magnetic Christmas". Called "the most promising young vocalist to come along so far this century" by The Wall Street Journal, James cemented her passion for classic soul in her 2020 album Memphis Magnetic. And like Memphis Magnetic, "A Very Magnetic Christmas", was recorded live to analog tape at Memphis Magnetic Recording in Tennessee and features several legendary Memphis studio musicians. The resulting ten tracks combine James' soulful take on classics like "O Holy Night," and "White Christmas;" re-imagined favorites like Clarence Carter's spicy "Back Door Santa," and Otis Redding/Lou Rawls' "Merry Christmas Baby"; and three originals, co-written by James and her husband/collaborator/arranger Doug Wamble. A full tracklist is below. James recorded the full album in front of a live studio audience.



Tracklist:

01. Morgan James - Do You Hear What I Hear
02. Morgan James - Back Door Santa
03. Morgan James - Long As I Got You
04. Morgan James - Merry Christmas Baby
05. Morgan James - Everyday Will Be Like A Holiday
06. Morgan James - Why Am I Lonely Tonight
07. Morgan James - White Christmas
08. Morgan James - O Holy Night
09. Morgan James - I Wanna Know
10. Morgan James - Warm In December

foobar2000 1.4 / Dynamic Range Meter 1.1.1
log date: 2021-11-08 06:51:42

––––––––––––––––––––––––––––––––––––––––
Analyzed: Morgan James / A Very Magnetic Christmas
––––––––––––––––––––––––––––––––––––––––

DR Peak RMS Duration Track
––––––––––––––––––––––––––––––––––––––––
DR7 -0.15 dB -9.92 dB 5:26 01-Do You Hear What I Hear
DR8 -0.15 dB -9.80 dB 5:00 02-Back Door Santa
DR7 -0.15 dB -9.07 dB 3:24 03-Long As I Got You
DR10 -0.15 dB -13.10 dB 5:00 04-Merry Christmas Baby
DR7 -0.15 dB -8.78 dB 3:49 05-Everyday Will Be Like A Holiday
DR7 -0.15 dB -10.92 dB 6:22 06-Why Am I Lonely Tonight
DR7 -0.15 dB -9.96 dB 4:40 07-White Christmas
DR7 -0.15 dB -11.17 dB 6:38 08-O Holy Night
DR7 -0.15 dB -8.55 dB 3:39 09-I Wanna Know
DR12 -0.15 dB -16.66 dB 3:34 10-Warm In December
––––––––––––––––––––––––––––––––––––––––

Number of tracks: 10
Official DR value: DR8

Samplerate: 96000 Hz
Channels: 2
Bits per sample: 24
Bitrate: 2215 kbps
Codec: FLAC
================================================================================



Thanks to the Original customer!