Tags
Language
Tags

Myles Kennedy - The Ides of March (2021) [Official Digital Download]

Posted By: delpotro
Myles Kennedy - The Ides of March (2021) [Official Digital Download]

Myles Kennedy - The Ides of March (2021)
FLAC (tracks) 24-bit/44,1 kHz | Front Cover | Time - 51:35 minutes | 631 MB
Country Rock | Label: Napalm Records, Official Digital Download

Iconic frontman and instrumentalist Myles Kennedy (Alter Bridge, Slash ft. Myles Kennedy & The Conspirators) proves that tumultuous downtime can spark creative genius with The Ides Of March – the long-anticipated full-length follow up to his 2018 solo debut, Year Of The Tiger. The Ides Of March once again showcases the organic side of Kennedy’s musical spectrum and one-of-a-kind voice, but while bright inclusions of lap steel and mandolin have replaced some of the pummeling kick drum and downtuned electric riffage his other renowned projects are known for, each of its offerings maintain the same steadfast energy that never relents. Fluxing between heritage rock outcries featuring Jimmy Page-worthy solos, and stripped-down, bluesy beckonings, the album manifests as an uplifting refresher arriving when society needs it most. Lyrically, the album’s 11 unique offerings embrace all listeners, championing themes of unity and solidarity over separation and spite, allowing the sonic warmth of each track to stand out. The Ides Of March doubles down on the charging roots rock vibes of its predecessor while exuding an aura of tenderness and inner peace – radiating the sorely needed, uplifting spirit of Americana rock.

Tracklist:
1. Get Along (04:12)
2. A Thousand Words (03:41)
3. In Stride (03:47)
4. The Ides of March (07:39)
5. Wake Me When It's Over (04:44)
6. Love Rain Down (05:00)
7. Tell It Like It Is (04:16)
8. Moonshot (04:57)
9. Wanderlust Begins (04:06)
10. Sifting Through the Fire (04:26)
11. Worried Mind (04:41)

foobar2000 1.4.1 / Dynamic Range Meter 1.1.1
log date: 2021-05-14 11:55:31

––––––––––––––––––––––––––––––––––––––––
Analyzed: Myles Kennedy / The Ides of March
––––––––––––––––––––––––––––––––––––––––

DR Peak RMS Duration Track
––––––––––––––––––––––––––––––––––––––––
DR5 -0.80 dB -6.80 dB 4:13 01-Get Along
DR5 -0.80 dB -7.09 dB 3:42 02-A Thousand Words
DR5 -0.80 dB -6.76 dB 3:47 03-In Stride
DR5 -0.80 dB -8.15 dB 7:39 04-The Ides of March
DR5 -0.80 dB -7.13 dB 4:45 05-Wake Me When It's Over
DR5 -0.80 dB -8.14 dB 5:01 06-Love Rain Down
DR5 -0.80 dB -7.17 dB 4:17 07-Tell It Like It Is
DR5 -0.80 dB -7.37 dB 4:58 08-Moonshot
DR5 -0.80 dB -7.44 dB 4:06 09-Wanderlust Begins
DR5 -0.80 dB -6.56 dB 4:27 10-Sifting Through the Fire
DR5 -0.80 dB -8.70 dB 4:41 11-Worried Mind
––––––––––––––––––––––––––––––––––––––––

Number of tracks: 11
Official DR value: DR5

Samplerate: 44100 Hz
Channels: 2
Bits per sample: 24
Bitrate: 1632 kbps
Codec: FLAC
================================================================================


Thanks to the Original customer!