Tags
Language
Tags

nOx.3 - Nox Tape (2016) [Official Digital Download 24/96]

Posted By: Pisulik
nOx.3 - Nox Tape (2016) [Official Digital Download 24/96]

nOx.3 - Nox Tape (2016)
FLAC (tracks) 24-bit/96 kHz | Time - 40:12 minutes | 809 MB
Studio Master, Official Digital Download | Artwork: Digital Booklet

Firmly embedded in the new millenium, nOx.3’s music is intriguing and captivating. The young group has not simply reinvented the trio format, but also created their own aesthetic which takes as its guidelines a desire for freedom and a finely-worked sound worthy of the wizards of electro music. As for the spectrum it covers, their music encompasses minimalist tones, hypnotic phases and melodic and rhythmic surprises. It is the jazz of 2016.

Tracklist:

01. Potée (4:16)
02. Chope (4:16)
03. Expansion III (8:09)
04. Noise.3 (3:40)
05. Mademoiselle Delay (5:27)
06. Gesualdo (4:51)
07. Pas peur (5:15)
08. Aspiration (4:19)

Personnel:

Rémi Fox - alto & soprano saxophones, FX
Nicolas Fox - drums, electronics
Matthieu Naulleau - piano, moog & FX

foobar2000 1.3.7 / Dynamic Range Meter 1.1.1
log date: 2019-07-04 00:37:06

––––––––––––––––––––––––––––––––––––––––
Analyzed: nOx.3 / Nox Tape
––––––––––––––––––––––––––––––––––––––––

DR Peak RMS Duration Track
––––––––––––––––––––––––––––––––––––––––
DR7 -0.50 dB -9.92 dB 4:16 01-Potée
DR12 -0.50 dB -15.04 dB 4:16 02-Chope
DR8 -0.50 dB -12.30 dB 8:09 03-Expansion III
DR7 -0.50 dB -8.97 dB 3:40 04-Noise.3
DR10 -0.50 dB -14.35 dB 5:27 05-Mademoiselle Delay
DR7 -0.50 dB -12.36 dB 4:51 06-Gesualdo
DR9 -0.50 dB -13.21 dB 5:15 07-Pas peur
DR8 -0.50 dB -11.62 dB 4:19 08-Aspiration
––––––––––––––––––––––––––––––––––––––––

Number of tracks: 8
Official DR value: DR8

Samplerate: 96000 Hz
Channels: 2
Bits per sample: 24
Bitrate: 2697 kbps
Codec: FLAC
================================================================================


All thanks go to the original releaser