The Royal Scottish National Orchestra - Great Comedy Overtures (2015) [Official Digital Download 24/96]

Posted By: El Misha
The Royal Scottish National Orchestra - Great Comedy Overtures (2015) [Official Digital Download 24/96]

The Royal Scottish National Orchestra - Great Comedy Overtures (2015)
FLAC (tracks) 24-bit/96 kHz | Time - 01:19:31 | 1.40 GB
Studio Master, Official Digital Download | Artwork: Front cover+digital booklet

Overtures from comic operas and operettas are staples of the light music genre, and some of the most popular are included on this 2015 Naxos album by Lance Friedel and the Royal Scottish National Orchestra. Because of their memorable tunes, exciting pacing, and colorful orchestration, these effervescent pieces were once ubiquitous in the concert hall and on radio and recordings. While many have slipped into semi-obscurity, among them Peter Cornelius' Overture to Der Barbier von Bagdad, and Adolphe Adam's Overture to Si j'étais roi, such perennials as Emil Nikolaus von Reznicek's Overture to Donna Diana, Ferdinand Hérold's Overture to Zampa, Otto Nicolai's Overture to The Merry Wives of Windsor, and Ermanno Wolf-Ferrari's Overture to Il segreto di Susanna remain favorites and are frequently used to introduce young people to classical music. The 11 selections represent French opéra comique, Viennese operetta, and Italian opera buffa, though the differences in style aren't especially noticeable, except for Domenico Cimarosa's Overture to Il Matrimonio Segreto, which is the sole example from the Classical era. Friedel and his musicians fully communicate the buoyant moods and theatricality of these bon-bons, and the reproduction is clear and detailed, with credible presence and fine separation of parts.
© TiVo



Tracklist:

01-Zampa: Overture
02-Overture
03-Overture
04-Mignon: Overture
05-Overture
06-Martha: Overture
07-Overture
08-Overture
09-Overture
10-Overture
11-Overture (Arr. F. Mottl)

foobar2000 1.4 / Dynamic Range Meter 1.1.1
log date: 2021-04-07 21:20:28

––––––––––––––––––––––––––––––––––––––––
Analyzed: The Royal Scottish National Orchestra / Great Comedy Overtures
––––––––––––––––––––––––––––––––––––––––

DR Peak RMS Duration Track
––––––––––––––––––––––––––––––––––––––––
DR15 -1.62 dB -22.41 dB 8:25 01-Zampa: Overture
DR14 -0.70 dB -21.70 dB 8:21 02-Overture
DR14 -0.70 dB -22.80 dB 3:08 03-Overture
DR16 -0.70 dB -24.08 dB 8:23 04-Mignon: Overture
DR13 -2.21 dB -20.72 dB 6:02 05-Overture
DR13 -0.84 dB -21.04 dB 8:26 06-Martha: Overture
DR14 -0.70 dB -20.70 dB 8:12 07-Overture
DR15 -1.32 dB -22.85 dB 6:03 08-Overture
DR13 -1.50 dB -20.28 dB 6:43 09-Overture
DR14 -1.90 dB -23.41 dB 7:17 10-Overture
DR14 -0.70 dB -20.79 dB 8:41 11-Overture (Arr. F. Mottl)
––––––––––––––––––––––––––––––––––––––––

Number of tracks: 11
Official DR value: DR14

Samplerate: 96000 Hz
Channels: 2
Bits per sample: 24
Bitrate: 2576 kbps
Codec: FLAC
================================================================================



Thanks to the Original customer!