No Angels - 20 (2021) [Official Digital Download]

Posted By: delpotro
No Angels - 20 (2021) [Official Digital Download]

No Angels - 20 (2021)
FLAC (tracks) 24-bit/44,1 kHz | Front Cover | Time - 70:58 minutes | 849 MB
Pop, Female Vocal | Label: BMG Rights Management, Official Digital Download

20 is the upcoming sixth studio album by all-female German pop group No Angels. The album will be the band's first album since their departure from Polydor Records and Universal Music Domestic in 2013 and mark the third full length release to feature No Angels' third lineup, excluding original band member Vanessa Petruo. During a special episode of Prominent on VOX the band revealed that 20 will be a mixture of 16 updated classics and four new songs.

Tracklist:
1. Daylight in Your Eyes (Celebration Version) (03:31)
2. Still in Love with You (Celebration Version) (03:36)
3. Something About Us (Celebration Version) (03:32)
4. When the Angels Sing (Celebration Version) (03:45)
5. Rivers of Joy (Celebration Version) (03:30)
6. There Must Be an Angel (Celebration Version) (03:55)
7. We Keep the Spirit Alive (03:23)
8. All Cried Out (Celebration Version) (03:30)
9. Someday (Celebration Version) (03:15)
10. Mad Wild (02:35)
11. Washes Over Me (Celebration Version) (04:09)
12. Feelgood Lies (Celebration Version) (03:26)
13. A New Day (03:11)
14. Faith Can Move a Mountain (Celebration Version) (03:38)
15. Cold as Ice (Celebration Version) (04:10)
16. Love You for Eternity (03:41)
17. Cry for You (Celebration Version) (03:39)
18. No Angel (It's All In Your Mind) (Celebration Version) (03:12)
19. That's the Reason (Celebration Version) (03:35)
20. Still in Love with You (Acoustic Celebration Version) (03:36)

foobar2000 1.4.1 / Dynamic Range Meter 1.1.1
log date: 2021-06-04 06:24:12

––––––––––––––––––––––––––––––––––––––––
Analyzed: No Angels / 20
––––––––––––––––––––––––––––––––––––––––

DR Peak RMS Duration Track
––––––––––––––––––––––––––––––––––––––––
DR4 -0.01 dB -6.55 dB 3:31 01-Daylight in Your Eyes (Celebration Version)
DR5 -0.12 dB -7.50 dB 3:37 02-Still in Love with You (Celebration Version)
DR5 -0.15 dB -7.06 dB 3:32 03-Something About Us (Celebration Version)
DR5 -0.15 dB -7.48 dB 3:45 04-When the Angels Sing (Celebration Version)
DR5 -0.09 dB -6.70 dB 3:31 05-Rivers of Joy (Celebration Version)
DR4 -0.12 dB -5.56 dB 3:55 06-There Must Be an Angel (Celebration Version)
DR4 -0.13 dB -5.65 dB 3:24 07-We Keep the Spirit Alive
DR5 -0.14 dB -6.96 dB 3:30 08-All Cried Out (Celebration Version)
DR5 -0.14 dB -7.12 dB 3:16 09-Someday (Celebration Version)
DR4 -0.13 dB -6.88 dB 2:36 10-Mad Wild
DR7 -0.16 dB -9.44 dB 4:09 11-Washes Over Me (Celebration Version)
DR4 -0.14 dB -5.49 dB 3:26 12-Feelgood Lies (Celebration Version)
DR4 -0.14 dB -6.61 dB 3:12 13-A New Day
DR5 -0.13 dB -7.10 dB 3:39 14-Faith Can Move a Mountain (Celebration Version)
DR3 -0.15 dB -5.44 dB 4:10 15-Cold as Ice (Celebration Version)
DR3 -0.15 dB -5.71 dB 3:41 16-Love You for Eternity
DR5 -0.16 dB -7.23 dB 3:39 17-Cry for You (Celebration Version)
DR3 -0.21 dB -5.16 dB 3:12 18-No Angel (It's All In Your Mind) (Celebration Version)
DR6 -0.16 dB -7.69 dB 3:35 19-That's the Reason (Celebration Version)
DR7 -0.16 dB -9.37 dB 3:37 20-Still in Love with You (Acoustic Celebration Version)
––––––––––––––––––––––––––––––––––––––––

Number of tracks: 20
Official DR value: DR5

Samplerate: 44100 Hz
Channels: 2
Bits per sample: 24
Bitrate: 1578 kbps
Codec: FLAC
================================================================================


Thanks to the Original customer!