Orchestre Philharmonique de Radio France - Strauss: Burleske, Serenade & Tod und Verklärung (2021) [24/48]

Posted By: delpotro
Orchestre Philharmonique de Radio France - Strauss: Burleske, Serenade & Tod und Verklärung (2021) [24/48]

Orchestre Philharmonique de Radio France, Mikko Franck & Nelson Goerner - Strauss: Burleske, Serenade & Tod und Verklärung (2021)
FLAC (tracks) 24-bit/48 kHz | Front Cover & Digital Booklet | Time - 55:16 minutes | 518 MB
Classical | Label: Alpha Classics, Official Digital Download

The Orchestre Philharmonique de Radio France and Mikko Franck continue their collaboration with Alpha and here invite one of the label’s flagship pianists, Nelson Goerner. The programme is devoted to Richard Strauss, coupling several of the German composer’s early works. The Burleske for piano and orchestra, written at the age of twenty, is brimming with lyricism and Romantic ardour; its tone colours herald Strauss’s operas, while the orchestration anticipates his symphonic poems. The piano part is exceptionally virtuosic: Hans von Bülow, for whom Strauss wrote it, called it unplayable! The Serenade for thirteen wind instruments harks back to Mozart’s Gran Partita K361 for similar forces. This brief work in a single movement begins in a nocturnal colouring, as befits a serenade, before growing more animated and finally returning to the contemplative atmosphere of the opening. The symphonic poem for large orchestra Tod und Verklärung depicts the last hour of an artist’s life: the listener is gripped from the very first bars, which evoke the breathing and heartbeats of a dying man. Strauss allows us to experience his final moments and the transfiguration of his soul in one of the most glorious moments in the symphonic repertoire.

Tracklist:
1. Nelson Goerner, Orchestre Philharmonique de Radio France & Mikko Franck – Burleske in D Minor, TRV 145 (20:01)
2. Orchestre Philharmonique de Radio France & Mikko Franck – Serenade for Winds in E-Flat Major, Op. 7 (08:32)
3. Orchestre Philharmonique de Radio France & Mikko Franck – Tod und Verklärung, Op. 24 (26:42)

foobar2000 1.4.1 / Dynamic Range Meter 1.1.1
log date: 2021-06-22 15:07:18

––––––––––––––––––––––––––––––––––––––––
Analyzed: Nelson Goerner, Orchestre Philharmonique de Radio France & Mikko Franck / Strauss: Burleske, Serenade & Tod und Verklärung
––––––––––––––––––––––––––––––––––––––––

DR Peak RMS Duration Track
––––––––––––––––––––––––––––––––––––––––
DR15 -0.12 dB -20.80 dB 20:01 01-Strauss: Burleske in D Minor, TRV 145
DR14 -4.37 dB -23.76 dB 8:33 02-Strauss: Serenade for Winds in E-Flat Major, Op. 7
DR14 -1.05 dB -22.02 dB 26:43 03-Strauss: Tod und Verklärung, Op. 24
––––––––––––––––––––––––––––––––––––––––

Number of tracks: 3
Official DR value: DR14

Samplerate: 48000 Hz
Channels: 2
Bits per sample: 24
Bitrate: 1335 kbps
Codec: FLAC
================================================================================


Thanks to the Original customer!