Orgone - Raw & Direct (2021) [Official Digital Download]

Posted By: El Misha
Orgone - Raw & Direct (2021) [Official Digital Download]

Orgone - Raw & Direct (2021)
FLAC (tracks) 24-bit/44.10 kHz | Time - 50:52 | 560 MB
Studio Master, Official Digital Download | Artwork: Front cover

With a lively, evocative set of covers and original material, Los Angeles-based ensemble Orgone brought new attention to the funk revivalist and jam band circuits when they launched their recording career with Ubiquity Records in the mid- to late 2000s. Orgone's sound hosts a myriad of groove-oriented styles, including but not limited to deep funk, '60s Memphis soul/blues, Fela-inspired Afro-beat, hip-hop, Latin jazz, and electronic dance and house. Many of the band's musicians started playing together in the early '90s, but Orgone did not develop into a tight-knit ensemble until the end of the decade. The core lineup of the band eventually came to consist of Sergio Rios (guitar), Dan Hastie (Rhodes, clavinet, Hammond B-3 organ), Sean O'Shea (drums), Ethan Phillips (bass), Stewart Killen (various percussion), Darren Cardoza (trombone), Devin Williams (trumpet), and Joel Bowers (saxophone). Other than working live jam sessions, Orgone mainly backed hip-hop acts on tour or in the studio until around 2001, when bandmembers saw vocalist Fanny Franklin perform with L.A.-based hip-hop orchestra Dakah. With Franklin added to the mix, the funk jam band was more eager to make its own recordings, cutting one of its earliest songs, a cover of the Beginning of the End's '70s funk hit "Funky Nassau," for Ubiquity compilation Rewind! 4 (2004). While Orgone served as the on-stage band for the likes of Little Brother, the Pharcyde, Pharoahe Monch, and Tone-Loc, Ubiquity issued their I Get Lifted 12" and The Duck Gravy 7" in spring 2007. All of these singles appeared on The Killion Floor, released later that year. In 2010, Orgone re-emerged with their sophomore effort, Cali Fever, and issued their first all-instrumental effort, Killion Vaults.
© Cyril Cordor /TiVo



Tracklist:

01. Sophisticated Honky (Live)
02. Losin You (Live)
03. We Can Make It (Live)
04. Take You Higher (Live)
05. Suma Juice (Live)
06. Do What You Came To Do (Live)
07. Be Thankful For What You've Got (Live)
08. Picture On My Wall (Live)

foobar2000 1.4 / Dynamic Range Meter 1.1.1
log date: 2021-01-10 20:54:07

––––––––––––––––––––––––––––––––––––––––
Analyzed: Orgone / Raw & Direct
––––––––––––––––––––––––––––––––––––––––

DR Peak RMS Duration Track
––––––––––––––––––––––––––––––––––––––––
DR7 -0.27 dB -8.59 dB 6:02 01-Sophisticated Honky (Live)
DR7 -0.26 dB -8.77 dB 4:33 02-Losin You (Live)
DR7 -0.27 dB -9.07 dB 5:51 03-We Can Make It (Live)
DR9 -0.25 dB -10.30 dB 5:02 04-Take You Higher (Live)
DR8 -0.28 dB -10.09 dB 6:43 05-Suma Juice (Live)
DR7 -0.27 dB -8.58 dB 4:31 06-Do What You Came To Do (Live)
DR8 -0.27 dB -9.26 dB 8:54 07-Be Thankful For What You've Got (Live)
DR9 -0.27 dB -11.40 dB 9:19 08-Picture On My Wall (Live)
––––––––––––––––––––––––––––––––––––––––

Number of tracks: 8
Official DR value: DR8

Samplerate: 44100 Hz
Channels: 2
Bits per sample: 24
Bitrate: 1428 kbps
Codec: FLAC
================================================================================



Thanks to the Original customer!