Tags
Language
Tags

Pan•American - A Son (2019) [Official Digital Download 24/48]

Posted By: delpotro
Pan•American - A Son (2019) [Official Digital Download 24/48]

Pan•American - A Son (2019)
FLAC (tracks) 24-bit/48 kHz | Front Cover | Time - 40:16 minutes | 412 MB
Post-Rock, Ambient, Slowcore | Label: Kranky, Official Digital Download

Mark Nelson's Pan American beautifully drifts into a sunset sound referencing his classic Labradford output on ‘A Son’, his first new album since start of the decade. RIYL Spacemen 3, Mark Lanegan, Bark Psychosis…

Now a duo revolving original member Mark Nelson of Labradford esteem, and percussionist Steven Hess, whose solo work and with the likes of Sylvain Chaveau and Michael Valera is well loved over here, Pan American return to their post-rock roots with suitably brooding results that sound to these ears like a long evening spent porchside sipping an unending and always chilled glass of whiskey.

Dwelling on acoustic strums and murmuring electronic textures, the music hits a fine vein of ambient post-rock sensitivity that gauzily looks back to that time before the retroactivation of new age and 4th world ambient styles, to a sort of pre-2008 Americana ennui and indie alt.rock that used to be dominant but has lost its grip over the past decade.

“Motivated by notions of "moving backward" and tracing roots – as well as a couple years of hammered dulcimer lessons – the album's nine songs were written and recorded in his home in Evanston, Illinois, and honed during a recent solo tour in Europe. The emphasis on uncluttered arrangements and the centrality of the guitar and vocals reveal these songs as the most direct and emotional statement of his career.

Nelson cites everything from June Tabor, The Carter Family, Suicide and Jimmy Reed as oblique inspirations, though his truest muse was creative self-inquiry: "What does music do, Where does music start? How simple can it be? How honest can it be?"

After decades of mining post-rock pathways and latticework electronics in Labradford and early Pan American, A Son strips away ornament and distraction in favor of a direct gaze into the heart of what is.”

Tracklist:
1. Ivory Joe Hunter, Little Walter (01:45)
2. Memphis Helena (07:34)
3. Sleepwalk Guitars (03:38)
4. Brewthru (03:32)
5. Dark Birds Empty Fields (02:55)
6. Drunk Father (06:54)
7. Muriel Spark (04:56)
8. Kept Quiet (02:31)
9. Shenandoah (06:31)

foobar2000 1.4.1 / Dynamic Range Meter 1.1.1
log date: 2021-12-11 14:41:42

––––––––––––––––––––––––––––––––––––––––
Analyzed: Pan American / A Son
––––––––––––––––––––––––––––––––––––––––

DR Peak RMS Duration Track
––––––––––––––––––––––––––––––––––––––––
DR14 -0.53 dB -18.57 dB 1:45 01-Ivory Joe Hunter, Little Walter
DR9 -0.52 dB -11.34 dB 7:34 02-Memphis Helena
DR11 -0.52 dB -13.57 dB 3:38 03-Sleepwalk Guitars
DR9 -0.66 dB -11.47 dB 3:32 04-Brewthru
DR10 -0.52 dB -14.07 dB 2:55 05-Dark Birds Empty Fields
DR7 -0.51 dB -10.35 dB 6:54 06-Drunk Father
DR9 -0.46 dB -10.83 dB 4:56 07-Muriel Spark
DR11 -1.88 dB -15.76 dB 2:31 08-Kept Quiet
DR10 -0.52 dB -13.20 dB 6:31 09-Shenandoah
––––––––––––––––––––––––––––––––––––––––

Number of tracks: 9
Official DR value: DR10

Samplerate: 48000 Hz
Channels: 2
Bits per sample: 24
Bitrate: 1490 kbps
Codec: FLAC
================================================================================


Thanks to the Original customer!