Philip Lassiter - Live in Love (2021) [Official Digital Download]

Posted By: delpotro
Philip Lassiter - Live in Love (2021) [Official Digital Download]

Philip Lassiter - Live in Love (2021)
FLAC (tracks) 24-bit/44,1 kHz | Front Cover | Time - 47:11 minutes | 560 MB
Funk, Soul | Label: Leopard, Official Digital Download

With Live in Love, trumpeter-composer-arranger Philip Lassiter mixes socio-political messaging ("Make America Love Again") with humorous, earthy storytelling ("Poof," "Suga Coat Me," "Root Chakra") and some forays into old school funk (the James Brown-inspired "Repent" and the P-Funk-ish "Love Story"). Along with detours into one-drop reggae ("Take a Little Time" and "Live in Love"), an eerie hoodoo number (the J Dilla-D'Angelo flavored "Babayaga") and a dreamy, romantic love song ("Light Me Up"), Lassiter's latest is a triumph of deep groove, swaggering horns and soul-stirring vocal performances by the likes of Jonathan Hoard, Mariah Meshae, Charles Jones, Durand Bernarr, Mackenzie, LaVance Colley, Munir Hossn, Elliott Yamin and Lassiter's wife Josje (aka Josephine Rojer).

The title track also features a vocal duet between Josje and 22x Latin Grammy-winning legend Juan Luis Guerra. On board for this ride into the funkosphere are fellow musicians; keyboardist David Paich (of Toto), bassist Mono Neon (of Prince), LEOPARD label mates keyboardist Bobby Sparks, drummer Robert "Sput" Searight and Mark Lettieri (all of Snarky Puppy), saxophonist Jeff Coffin (of Bela Fleck & The Flecktones and the Dave Matthews Band), label mate organist Ricky Peterson (of David Sanborn, Prince, and George Benson), drummer Nikki Glaspie (of Beyonce, Maceo Parker, and Dumpstaphunk) and string arranging genius Simon Novsky.

With one foot firmly planted in old school funk, Lassiter confidently strides somewhere else on each of the ten tracks of Live in Love. "You hear a lot of hip hop blended with jazz nowadays and also neo-soul blended with jazz," he said. "But, I don't know that I've heard a whole lot of large ensemble neo-soul/hip-hop/jazz. That's what we do."

Tracklist:
1. Philip Lassiter – Make America Love Again (feat. Charles Jones) (03:45)
2. Philip Lassiter – Poof (04:09)
3. Philip Lassiter – Sugar Coat Me (feat. Durand Bernarr) (04:47)
4. Philip Lassiter – Take a Little Time (feat. Josje) (04:53)
5. Philip Lassiter – Light Me Up (feat. LaVance Colley) (05:36)
6. Philip Lassiter – Babayaga (feat. Mariah Meshae & David Paich) (04:33)
7. Philip Lassiter – Love Story (feat. J. Hoard) (04:11)
8. Philip Lassiter – Repent (feat. Mackenzie & Keith Anderson) (05:16)
9. Philip Lassiter – Root Chakra (feat. Durand Bernarr, Munir Hossn & Jeff Coffin) (03:57)
10. Philip Lassiter & Juan Luis Guerra y 440 – Live in Love (feat. Josje) (06:00)

foobar2000 1.4.1 / Dynamic Range Meter 1.1.1
log date: 2021-06-09 11:31:44

––––––––––––––––––––––––––––––––––––––––
Analyzed: Philip Lassiter / Live in Love
––––––––––––––––––––––––––––––––––––––––

DR Peak RMS Duration Track
––––––––––––––––––––––––––––––––––––––––
DR6 -0.50 dB -8.84 dB 3:45 01-Make America Love Again
DR5 -0.50 dB -7.20 dB 4:09 02-Poof
DR7 -0.50 dB -8.52 dB 4:47 03-Sugar Coat Me
DR5 -0.50 dB -6.78 dB 4:54 04-Take a Little Time
DR7 -0.50 dB -11.89 dB 5:37 05-Light Me Up
DR6 -0.50 dB -8.60 dB 4:34 06-Babayaga
DR6 -0.50 dB -7.46 dB 4:11 07-Love Story
DR6 -0.50 dB -8.43 dB 5:16 08-Repent
DR7 -0.50 dB -9.36 dB 3:57 09-Root Chakra
DR6 -0.50 dB -8.76 dB 6:00 10-Live in Love
––––––––––––––––––––––––––––––––––––––––

Number of tracks: 10
Official DR value: DR6

Samplerate: 44100 Hz
Channels: 2
Bits per sample: 24
Bitrate: 1659 kbps
Codec: FLAC
================================================================================


Thanks to the Original customer!