Prudence - Beginnings (2021) [Official Digital Download]

Posted By: delpotro
Prudence - Beginnings (2021) [Official Digital Download]

Prudence - Beginnings (2021)
FLAC (tracks) 24-bit/44,1 kHz | Front Cover | Time - 37:15 minutes | 413 MB
Pop, Female Vocal | Label: Sony Music, Official Digital Download

After nearly a decade of success as half of The Dø – who Billie Eilish recently cited as a key influence on her Apple podcast ‘Me & My Dad Radio’ – French-Finnish Merilahti this year makes her full length debut as Prudence. The release of Beginnings in May will follow the success of Prudence’s critically acclaimed EP Be Water, which arrived in late 2020 alongside this performance for La Blogothèque.

eaturing co-production credits from Xavier and Surkin of French touch royalty Justice, Beginnings takes cues variously from female synth pioneers – particularly Suzanne Ciani – the scores of Hans Zimmer and Kraftwerk’s legacy to create a multi-dimensional pop album. Good Friends itself – an unabashed, club-ready celebration of affection – arrives alongside a sci-fi influenced new video shot by Leo Chatoudeau and featuring dancer Daniel Ralph. Speaking about the new track and music video, Olivia says “Close Encounters Of The Third Kind by Spielberg was a reference Leo & I had when we started exchanging ideas for the video. ‘Good Friends’ is an allegory about how we make friends with the unknown, without fear.”

Tracklist:
1. Beginnings (05:45)
2. Good Friends (04:03)
3. More Love (Don't Go Home) (03:21)
4. City On Fire (02:48)
5. Here & Now (03:15)
6. Offenses (03:25)
7. Pretty (03:35)
8. Adrenaline (03:52)
9. Playmate (03:16)
10. Be Water (03:15)
11. Manifesto (Outro) (00:36)

foobar2000 1.6.6 / Dynamic Range Meter 1.1.1
log date: 2021-05-27 17:58:12

––––––––––––––––––––––––––––––––––––––––
Analyzed: Prudence / Beginnings
––––––––––––––––––––––––––––––––––––––––

DR Peak RMS Duration Track
––––––––––––––––––––––––––––––––––––––––
DR7 -1.00 dB -11.32 dB 5:46 01-Beginnings
DR7 -1.08 dB -9.77 dB 4:03 02-Good Friends
DR6 -1.60 dB -10.04 dB 3:22 03-More Love (Don't Go Home)
DR5 -1.00 dB -8.24 dB 2:48 04-City on Fire
DR8 -1.10 dB -11.74 dB 3:16 05-Here & Now
DR6 -1.10 dB -10.23 dB 3:25 06-Offenses
DR6 -2.80 dB -11.20 dB 3:35 07-Pretty
DR6 -1.06 dB -9.41 dB 3:52 08-Adrenaline
DR6 -1.03 dB -9.30 dB 3:16 09-Playmate
DR5 -2.00 dB -12.21 dB 3:16 10-Be Water
DR12 -6.24 dB -20.72 dB 0:36 11-Manifesto (Outro)
––––––––––––––––––––––––––––––––––––––––

Number of tracks: 11
Official DR value: DR7

Samplerate: 44100 Hz
Channels: 2
Bits per sample: 24
Bitrate: 1189 kbps
Codec: FLAC
================================================================================


Thanks to the Original customer!