Tags
Language
Tags

Ray Charles - True Genius (Remastered) (2021) [Official Digital Download 24/48]

Posted By: delpotro
Ray Charles - True Genius (Remastered) (2021) [Official Digital Download 24/48]

Ray Charles - True Genius (Remastered) (2021)
FLAC (tracks) 24-bit/48 kHz | Front Cover | Time - 348:09 minutes | 3,99 GB
Vocal Jazz, Blues, Soul | Label: Tangerine Records, Official Digital Download

In honor of what would have been Ray Charles’ 90th birthday year, Tangerine Records is releasing the limited edition box set, True Genius, on September 10th. The record label, which the late legend founded in 1962, has remastered 90 of Charles’ most important works for the six-CD box set.

The collection also includes a bonus disc comprising eight previously unreleased songs, which were recorded live in Stockholm in 1972. It includes his hits “What’d I Say,” “I Can’t Stop Loving You,” and “I’ve Got a Woman.”

The digital release will also be widely available on streaming platforms for the first time. “Hit the Road Jack,” “Crying Time,” “Busted, “America the Beautiful, A Song for You,” and “Unchain My Heart” are among Charles’ classics that will return to streaming after more than a decade. “Hit the Road Jack,” one of Rolling Stone‘s 500 Greatest Songs of All Time, has also received a new animated lyric video.

“We’re extremely proud to present this collection, which maps the breadth and depth of Ray Charles’ music, presented in chronological order so the listener can join Ray on his journey through the most expansive and creative period of his legendary career,” Valeri Ervin, President of Ray Charles Foundation, said in a statement. “I’m also thrilled that this music will be widely available on all streaming services for the very first time, so that new and future audiences will continue to discover the True Genius of Ray Charles.”

Tracklist:
01. Georgia on My Mind
02. Them That Got
03. Ruby
04. Hardhearted Hannah
05. One Mint Julep
06. I've Got News for You
07. I'm Gonna Move to the Outskirts of Town
08. Hit the Road Jack
09. Unchain My Heart
10. Baby, It's Cold Outside
11. Hide Nor Hair
12. I Can't Stop Loving You
13. You Don't Know Me
14. You Are My Sunshine
15. Take These Chains from My Heart
16. No One
17. Busted
18. That Lucky Old Sun
19. Baby, Don't You Cry
20. Smack Dab in the Middle
21. My Heart Cries for You
22. Cry
23. Makin' Woopie (Live)
24. Hallelujah I Love Her So (Live)
25. I've Got A Woman (Live)
26. What'd I Say (Live)
27. I'm a Fool to Care
28. The Cincinnati Kid
29. Crying Time
30. Together Again
31. Let's Go Get Stoned
32. Please Say You're Fooling
33. I Don't Need No Doctor
34. Here We Go Again
35. Somebody Ought to Write a Book About It
36. In the Heat of the Night
37. Yesterday
38. Sweet Young Thing Like You
39. Eleanor Rigby
40. If It Wasn't for Bad Luck
41. I Didn't Know What Time It Was
42. Let Me Love You
43. I'm Satisfied
44. We Can Make It
45. Laughin and Clownin
46. If You Were Mine
47. Booty Butt
48. Feel so Bad
49. Your Love Is so Doggone Good
50. Something
51. America the Beautiful
52. Look What They've Done to My Song, Ma
53. There'll Be No Peace Without All Men as One
54. Every Saturday Night
55. Our Suite
56. I Can Make It Through The Days (But Oh Those Lonely Nights)
57. Ring of Fire
58. Come Live with Me
59. Somebody
60. Till There Was You
61. Living for the City
62. It Ain't Easy Being Green
63. 3/4 of the Time
64. Summertime
65. Take Me Home Country Roads (Live)
66. Am I Blue (Live)
67. I Can See Clearly Now
68. How Long Has This Been Going On
69. Let It Be
70. Is There Anyone Out There?
71. Drift Away
72. Blues in the Night
73. 3/4 Time
74. Compared to What
75. Do I Ever Cross Your Mind
76. Two Old Cats Like Us
77. Seven Spanish Angels
78. Anybody with the Blues Knows
79. Baby Grand
80. Stranger in My Own Home Town
81. Save the Bones for Henry Jones
82. Ellie My Love
83. I'll Be Good to You
84. A Song for You
85. Still Crazy After All These Years
86. If I Could
87. None of Us Are Free
88. Imagine
89. Here We Go Again
90. The Long and Winding Road

foobar2000 1.4.1 / Dynamic Range Meter 1.1.1
log date: 2021-09-07 15:18:09

––––––––––––––––––––––––––––––––––––––––
Analyzed: Ray Charles / True Genius (Remastered)
––––––––––––––––––––––––––––––––––––––––

DR Peak RMS Duration Track
––––––––––––––––––––––––––––––––––––––––
DR10 -3.56 dB -15.44 dB 3:40 01-Georgia on My Mind
DR11 -1.92 dB -15.12 dB 2:49 02-Them That Got
DR11 -2.18 dB -15.75 dB 3:54 03-Ruby
DR10 -0.86 dB -13.81 dB 3:17 04-Hardhearted Hannah
DR10 -1.31 dB -13.73 dB 3:06 05-One Mint Julep
DR9 -1.33 dB -13.61 dB 4:33 06-I've Got News for You
DR10 -1.59 dB -14.15 dB 3:44 07-I'm Gonna Move to the Outskirts of Town
DR11 -1.58 dB -15.38 dB 2:00 08-Hit the Road Jack
DR10 -2.07 dB -13.88 dB 2:52 09-Unchain My Heart
DR11 -3.09 dB -17.05 dB 4:10 10-Baby, It's Cold Outside
DR11 -1.04 dB -13.68 dB 3:11 11-Hide Nor Hair
DR9 -2.17 dB -13.70 dB 4:15 12-I Can't Stop Loving You
DR9 -1.93 dB -13.82 dB 3:16 13-You Don't Know Me
DR10 -1.23 dB -13.47 dB 3:00 14-You Are My Sunshine
DR10 -2.25 dB -14.86 dB 2:57 15-Take These Chains from My Heart
DR11 -1.37 dB -14.67 dB 3:11 16-No One
DR11 -0.60 dB -12.89 dB 2:36 17-Busted
DR10 -2.04 dB -15.02 dB 4:24 18-That Lucky Old Sun
DR10 -1.48 dB -13.73 dB 2:35 19-Baby, Don't You Cry
DR11 -0.97 dB -13.63 dB 3:18 20-Smack Dab in the Middle
DR11 -1.92 dB -15.15 dB 2:50 21-My Heart Cries for You
DR11 -3.20 dB -17.18 dB 3:34 22-Cry
DR12 -0.52 dB -15.04 dB 6:13 23-Makin' Woopie (Live)
DR11 -0.51 dB -13.15 dB 3:00 24-Hallelujah I Love Her So (Live)
DR11 -0.50 dB -13.33 dB 6:11 25-I've Got A Woman (Live)
DR11 -0.50 dB -13.70 dB 4:33 26-What'd I Say (Live)
DR11 -1.63 dB -14.24 dB 3:18 27-I'm a Fool to Care
DR11 -0.84 dB -13.67 dB 2:24 28-The Cincinnati Kid
DR10 -1.48 dB -14.17 dB 2:56 29-Crying Time
DR12 -0.81 dB -15.40 dB 2:41 30-Together Again
DR11 -1.27 dB -14.59 dB 2:57 31-Let's Go Get Stoned
DR10 -0.72 dB -15.20 dB 2:43 32-Please Say You're Fooling
DR11 -0.56 dB -13.20 dB 2:33 33-I Don't Need No Doctor
DR11 -0.50 dB -14.90 dB 3:17 34-Here We Go Again
DR11 -0.84 dB -14.45 dB 3:07 35-Somebody Ought to Write a Book About It
DR12 -0.51 dB -14.98 dB 2:36 36-In the Heat of the Night
DR10 -1.80 dB -13.94 dB 2:50 37-Yesterday
DR11 -0.64 dB -13.93 dB 2:18 38-Sweet Young Thing Like You
DR10 -0.51 dB -12.05 dB 3:00 39-Eleanor Rigby
DR12 -0.50 dB -14.48 dB 4:45 40-If It Wasn't for Bad Luck
DR10 -0.52 dB -13.30 dB 4:52 41-I Didn't Know What Time It Was
DR10 -1.43 dB -12.90 dB 2:49 42-Let Me Love You
DR10 -1.01 dB -12.41 dB 2:30 43-I'm Satisfied
DR11 -0.90 dB -15.25 dB 3:43 44-We Can Make It
DR11 -1.67 dB -15.18 dB 3:24 45-Laughin and Clownin
DR11 -0.56 dB -13.84 dB 3:52 46-If You Were Mine
DR12 -1.42 dB -16.31 dB 4:14 47-Booty Butt
DR11 -0.57 dB -13.82 dB 3:16 48-Feel so Bad
DR11 -0.51 dB -13.73 dB 3:03 49-Your Love Is so Doggone Good
DR10 -0.55 dB -14.36 dB 4:04 50-Something
DR11 -0.55 dB -14.04 dB 3:37 51-America the Beautiful
DR10 -0.51 dB -12.87 dB 3:43 52-Look What They've Done to My Song, Ma
DR9 -0.50 dB -13.29 dB 3:53 53-There'll Be No Peace Without All Men as One
DR11 -0.86 dB -13.30 dB 3:23 54-Every Saturday Night
DR11 -1.35 dB -15.15 dB 8:08 55-Our Suite
DR11 -0.52 dB -14.66 dB 3:55 56-I Can Make It Through The Days (But Oh Those Lonely Nights)
DR12 -0.51 dB -15.58 dB 3:08 57-Ring of Fire
DR10 -1.09 dB -13.81 dB 3:25 58-Come Live with Me
DR11 -1.69 dB -13.81 dB 4:06 59-Somebody
DR9 -2.28 dB -13.75 dB 4:10 60-Till There Was You
DR11 -0.50 dB -14.07 dB 6:04 61-Living for the City
DR12 -0.92 dB -15.93 dB 4:15 62-It Ain't Easy Being Green
DR11 -0.67 dB -14.47 dB 2:51 63-3/4 of the Time
DR12 -1.39 dB -17.71 dB 6:16 64-Summertime
DR11 -0.84 dB -14.39 dB 4:32 65-Take Me Home Country Roads (Live)
DR12 -1.42 dB -18.25 dB 6:58 66-Am I Blue (Live)
DR12 -0.50 dB -14.59 dB 4:25 67-I Can See Clearly Now
DR11 -1.03 dB -15.49 dB 5:21 68-How Long Has This Been Going On
DR10 -0.80 dB -14.19 dB 3:32 69-Let It Be
DR11 -1.24 dB -16.40 dB 5:57 70-Is There Anyone Out There?
DR11 -1.06 dB -14.20 dB 3:47 71-Drift Away
DR12 -0.92 dB -15.15 dB 7:39 72-Blues in the Night
DR13 -0.52 dB -15.81 dB 4:24 73-3/4 Time
DR12 -0.52 dB -13.29 dB 4:23 74-Compared to What
DR11 -0.52 dB -14.76 dB 3:51 75-Do I Ever Cross Your Mind
DR10 -0.50 dB -12.26 dB 2:37 76-Two Old Cats Like Us
DR11 -0.53 dB -13.48 dB 3:50 77-Seven Spanish Angels
DR11 -0.51 dB -13.27 dB 3:30 78-Anybody with the Blues Knows
DR12 -0.66 dB -14.69 dB 4:05 79-Baby Grand
DR12 -0.55 dB -14.59 dB 3:20 80-Stranger in My Own Home Town
DR12 -0.53 dB -14.60 dB 3:43 81-Save the Bones for Henry Jones
DR11 -0.50 dB -14.40 dB 4:14 82-Ellie My Love
DR11 -0.56 dB -13.45 dB 4:58 83-I'll Be Good to You
DR10 -0.51 dB -13.07 dB 4:17 84-A Song for You
DR11 -0.51 dB -14.88 dB 5:00 85-Still Crazy After All These Years
DR10 -0.83 dB -15.77 dB 4:56 86-If I Could
DR10 -0.50 dB -12.10 dB 5:06 87-None of Us Are Free
DR10 -0.50 dB -13.51 dB 4:28 88-Imagine
DR12 -0.50 dB -14.35 dB 3:59 89-Here We Go Again
DR10 -0.50 dB -13.19 dB 4:04 90-The Long and Winding Road
––––––––––––––––––––––––––––––––––––––––

Number of tracks: 90
Official DR value: DR11

Samplerate: 48000 Hz
Channels: 2
Bits per sample: 24
Bitrate: 1562 kbps
Codec: FLAC
================================================================================


Thanks to the Original customer!