Tags
Language
Tags

Riccardo Chailly & Orchestra Filarmonica della Scala - Respighi (2020) [Official Digital Download 24/96]

Posted By: delpotro
Riccardo Chailly & Orchestra Filarmonica della Scala - Respighi (2020) [Official Digital Download 24/96]

Riccardo Chailly & Orchestra Filarmonica della Scala - Respighi (2020)
FLAC (tracks) 24-bit/96 kHz | Front Cover | Time - 73:19 minutes | 1,25 GB
Classical | Label: Decca Classics, Official Digital Download

Riccardo Chailly and the Filarmonica della Scala’s new album Respighi aims to present the full complexity of the composer as well as the richness of his oeuvre by featuring two “triptychs” of his works: three rarities from his youth, and three mature compositions including two from his famous Roman trilogy. Thirty years of music are represented, spanning almost the entirety of Respighi’s output, from his student years to the outstanding examples from his maturity.

The early rarities featured in the first “triptych” are the Aria, the Leggenda and Di Sera composed, respectively, in 1901, 1902 and 1903. The three mature masterpieces featured are Fountains of Rome from 1915–16, Pines of Rome from 1924 and the third set of Ancient Airs and Dances from 1931. Here we meet the ‘Roman’ Respighi, who from 1913 was professor of composition (and later director) at the Conservatory of Santa Cecilia and an established composer, and there is a radical change in geography and mood as well as in Respighi’s position in the world.

Respighi was one of the leading Italian composers of the early 20th Century. Among his best-known works are his three Roman tone poems, Fountains of Rome, Pines of Rome and Roman Festivals which are among the finest examples of the symphonic poem, rich in cultural and emotional resonances, and demonstrate Respighi’s mastery of orchestration.

Respighi’s style consists of a complex collection of ingredients including his mastery of orchestral colour and his passion for, and reimagining of, ancient music that provided the inspiration for the Ancient Airs and Dances. He was also fascinated and inspired by Italy and its cultural history. Rome was Respighi’s spiritual home, where the first performances of Fountains and Pines took place, and where the Respighis resided.

Tracklist:
1. Riccardo Chailly, Orchestra Filarmonica della Scala & David Hinitt – Pini di Roma: I. I pini di Villa Borghese (02:39)
2. Riccardo Chailly, Orchestra Filarmonica della Scala, Francesco Tamiati & David Hinitt – Pini di Roma: II. Pini presso una catacomba (07:09)
3. Riccardo Chailly, Orchestra Filarmonica della Scala, Fabrizio Meloni & David Hinitt – Pini di Roma: III. I pini del Gianicolo (07:00)
4. Riccardo Chailly, Orchestra Filarmonica della Scala & David Hinitt – Pini di Roma: IV. I pini della Via Appia (05:39)
5. Riccardo Chailly & Orchestra Filarmonica della Scala – Aria per archi (Trans. Di Vittorio) (05:57)
6. Francesco De Angelis, Orchestra Filarmonica della Scala & Riccardo Chailly – Leggenda for Violin and Orchestra (06:10)
7. Riccardo Chailly, Orchestra Filarmonica della Scala, Armel Descotte & Gianni Viero – Di sera (05:32)
8. Riccardo Chailly & Orchestra Filarmonica della Scala – Antiche danze ed arie per liuto, Suite No. 3, P. 172: I. Italiana. Andantino (03:14)
9. Riccardo Chailly & Orchestra Filarmonica della Scala – Antiche danze ed arie per liuto, Suite No. 3, P. 172: II. Arie di corte. Andante cantabile (06:57)
10. Riccardo Chailly & Orchestra Filarmonica della Scala – Antiche danze ed arie per liuto, Suite No. 3, P. 172: III. Siciliana. Andantino (03:01)
11. Riccardo Chailly & Orchestra Filarmonica della Scala – Antiche danze ed arie per liuto, Suite No. 3, P. 172: IV. Passacaglia. Maestoso - Vivace (03:18)
12. Riccardo Chailly, Orchestra Filarmonica della Scala & David Hinitt – Fontane di Roma: I. La fontana di Valle Giulia all'alba (04:35)
13. Riccardo Chailly, Orchestra Filarmonica della Scala & David Hinitt – Fontane di Roma: II. La fontana del Tritone al mattino (02:42)
14. Riccardo Chailly, Orchestra Filarmonica della Scala & David Hinitt – Fontane di Roma: III. La fontana di Trevi al meriggio (03:25)
15. Riccardo Chailly, Orchestra Filarmonica della Scala & David Hinitt – Fontane di Roma: IV. La fontana di Villa Medici al tramonto (05:53)

foobar2000 1.4.1 / Dynamic Range Meter 1.1.1
log date: 2020-09-13 18:29:42

––––––––––––––––––––––––––––––––––––––––
Analyzed: Riccardo Chailly / Respighi
––––––––––––––––––––––––––––––––––––––––

DR Peak RMS Duration Track
––––––––––––––––––––––––––––––––––––––––
DR11 -0.70 dB -14.93 dB 2:40 01-I. I pini di Villa Borghese
DR10 -0.70 dB -16.71 dB 7:09 02-II. Pini presso una catacomba
DR13 -4.12 dB -24.00 dB 7:01 03-III. I pini del Gianicolo
DR7 -0.48 dB -11.95 dB 5:40 04-IV. I pini della Via Appia
DR13 -1.73 dB -19.89 dB 5:57 05-Respighi: Aria per archi (Trans. Di Vittorio)
DR13 -4.14 dB -22.62 dB 6:11 06-Respighi: Leggenda for Violin and Orchestra
DR12 -6.07 dB -23.90 dB 5:33 07-Respighi: Di sera
DR13 -5.60 dB -24.52 dB 3:14 08-I. Italiana. Andantino
DR13 -1.80 dB -20.48 dB 6:57 09-II. Arie di corte. Andante cantabile
DR13 -1.11 dB -20.66 dB 3:02 10-III. Siciliana. Andantino
DR11 -0.70 dB -14.52 dB 3:18 11-IV. Passacaglia. Maestoso - Vivace
DR13 -10.02 dB -28.19 dB 4:36 12-I. La fontana di Valle Giulia all'alba
DR10 -0.70 dB -15.76 dB 2:43 13-II. La fontana del Tritone al mattino
DR8 -0.70 dB -12.07 dB 3:26 14-III. La fontana di Trevi al meriggio
DR15 -7.84 dB -29.30 dB 5:53 15-IV. La fontana di Villa Medici al tramonto
––––––––––––––––––––––––––––––––––––––––

Number of tracks: 15
Official DR value: DR12

Samplerate: 96000 Hz
Channels: 2
Bits per sample: 24
Bitrate: 2304 kbps
Codec: FLAC
================================================================================


Thanks to the Original customer!