Ron Adelaar - Classical Piano Essentials (Chopin, Schumann, Mozart, Satie, Bach, Beethoven) (2021) [Official Digital Download]

Posted By: delpotro
Ron Adelaar - Classical Piano Essentials (Chopin, Schumann, Mozart, Satie, Bach, Beethoven) (2021) [Official Digital Download]

Ron Adelaar - Classical Piano Essentials (Chopin, Schumann, Mozart, Satie, Bach, Beethoven) (2021)
FLAC (tracks) 24-bit/44,1 kHz | Front Cover | Time - 18:11 minutes | 151 MB
Classical | Label: Andante Piano, Official Digital Download

Ron Adelaar is a Dutch-based pianist and composer of neoclassical, meditative piano compositions. Besides that he is A&R manager at Andante Piano, sublabel of Disruptive Records run by his son Ivo Adelaar. Ron had an early introduction to piano music, as he started his career at the age of 13 by playing the organ and piano at several churches in his hometown Amersfoort (The Netherlands), all together with his father Ton Adelaar who played the flute. After that, and now for already 37 years, Ron is a pianist and conductor of a choir in Amersfoort. His passion has always been to create his own contemporary compositions and share it with others. Because of the technical possibilities these days he’s finally able to share his own piano compositions with the rest of the world, all recorded in his home piano studio. Ron’s neoclassical piano compositions contribute to relax, meditate or to maintain concentration and focus during work.

Tracklist:
1. Chopin: Prélude Op. 28: No. 7 in A Major (01:31)
2. Schumann: Kinderszenen, Op. 15: No. 7. Träumerei (02:51)
3. Mozart: Andantino in E-Flat Major, K236/588b (01:55)
4. Satie: 3 Gymnopédies: No. 1, Lent et douloureux (03:18)
5. Bach: Air on the G String, Suite No. 3, BWV 1068 (03:16)
6. Beethoven: Piano Sonata No. 14 in C-Sharp Minor, Op. 27 No. 2, "Mondscheinsonate": I. Adagio Sostenuto (05:18)

foobar2000 1.4.1 / Dynamic Range Meter 1.1.1
log date: 2021-06-11 11:49:56

––––––––––––––––––––––––––––––––––––––––
Analyzed: Ron Adelaar / Classical Piano Essentials (Chopin, Schumann, Mozart, Satie, Bach, Beethoven)
––––––––––––––––––––––––––––––––––––––––

DR Peak RMS Duration Track
––––––––––––––––––––––––––––––––––––––––
DR12 -1.00 dB -15.82 dB 1:31 01-Chopin: Prélude Op. 28: No. 7 in A Major
DR11 -1.00 dB -15.84 dB 2:51 02-Schumann: Kinderszenen, Op. 15: No. 7. Träumerei
DR11 -1.00 dB -15.16 dB 1:55 03-Mozart: Andantino in E-Flat Major, K236/588b
DR12 -1.83 dB -18.51 dB 3:19 04-Satie: 3 Gymnopédies: No. 1, Lent et douloureux
DR11 -1.00 dB -14.61 dB 3:16 05-Bach: Air on the G String, Suite No. 3, BWV 1068
DR12 -1.00 dB -15.12 dB 5:19 06-Beethoven: Piano Sonata No. 14 in C-Sharp Minor, Op. 27 No. 2, "Mondscheinsonate": I. Adagio Sostenuto
––––––––––––––––––––––––––––––––––––––––

Number of tracks: 6
Official DR value: DR12

Samplerate: 44100 Hz
Channels: 2
Bits per sample: 24
Bitrate: 1236 kbps
Codec: FLAC
================================================================================


Thanks to the Original customer!