Tags
Language
Tags

Sacconi Quartet, Mary Bevan, Charles Owen, Roderick Williams - Panufnik: Heartfelt (2021) [Official Digital Download 24/96]

Posted By:
Sacconi Quartet, Mary Bevan, Charles Owen, Roderick Williams - Panufnik: Heartfelt (2021) [Official Digital Download 24/96]

Sacconi Quartet, Mary Bevan, Charles Owen, Roderick Williams - Panufnik: Heartfelt (2021)
FLAC (tracks) 24-bit/96 kHz | Front Cover & Digital Booklet | Time - 81:21 minutes | 1,43 GB
Classical, Vocal | Label: Signum Classics, Official Digital Download

Since Westminster Mass (2000) established Roxanna Panufnik’s firm place among today’sleading British composers, she has often been celebrated for her choral music. Her instrumental and chamber works, however, are equally striking, filled with dazzling imagination and poetic lightness of touch. Her latest album Heartfelt encompasses compassion, tragedy and irresistible humour, while demonstrating her passion for exploring diverse musical cultures, from East Sussex to Myanmar.

Featuring a stellar line-up of leading British soloists (including soprano Mary Bevan, pianist Charles Owen and baritone Roderick Williams) and led by the Sacconi Quartet, the title work includes a musical translation of the heartbeat of a young European Brown Bear named Albie: captured by a digital stethoscope, Bristol Zoological Society’s Wild Place Project was generously able to send Panufnik a recording of Albie’s heartbeat whilst he underwent a small surgical procedure, the anaesthetic possibly resembling the bear’s hibernation. Albie himself is pictured on the album’s front cover.

Tracklist:
1. Sacconi Quartet & Roderick Williams – Private Joe: I. Letter 1 (04:11)
2. Sacconi Quartet & Roderick Williams – Private Joe: II. And When I Die (02:21)
3. Sacconi Quartet & Roderick Williams – Private Joe: III. The Letter (03:38)
4. Sacconi Quartet & Roderick Williams – Private Joe: IV. From Albert to Bapaume (03:18)
5. Sacconi Quartet & Roderick Williams – Private Joe: V. Letter 2 (06:31)
6. Robin Ashwell – Canto (07:57)
7. Sacconi Quartet & Nicholas Daniel – Letters from Burma: I. Aung-ze Paing-ze (03:40)
8. Sacconi Quartet & Nicholas Daniel – Letters from Burma: II. Young Birds Outside Cages (01:48)
9. Sacconi Quartet & Nicholas Daniel – Letters from Burma: III. Thazin (02:55)
10. Sacconi Quartet & Nicholas Daniel – Letters from Burma: IV. Kintha Dance (02:17)
11. Hannah Dawson & Andy Marshall – Hora Bessarabia (07:32)
12. Sacconi Quartet & Any Harman – Cantator and Amanda (13:55)
13. Mary Bevan, Charles Owen & Sacconi Quartet – Second Home (09:50)
14. Sacconi Quartet – Heartfelt: I. Uzbek Processional (05:43)
15. Sacconi Quartet – Heartfelt: II. Lament for a Bulgarian Dancing Bear (05:39)

foobar2000 1.4.1 / Dynamic Range Meter 1.1.1
log date: 2021-05-18 14:22:30

––––––––––––––––––––––––––––––––––––––––
Analyzed: Sacconi Quartet, M. Bevan, N. Daniel, A. Harman, A. Marshall, C. Owen, R. Williams / Roxanna Panufnik: Heartfelt
––––––––––––––––––––––––––––––––––––––––

DR Peak RMS Duration Track
––––––––––––––––––––––––––––––––––––––––
DR15 -2.60 dB -23.53 dB 4:12 01-Panufnik: Private Joe: I. Letter 1
DR15 -1.17 dB -20.83 dB 2:21 02-Panufnik: Private Joe: Ii. And When I Die
DR19 -1.17 dB -25.59 dB 3:39 03-Panufnik: Private Joe: Iii. The Letter
DR14 -3.28 dB -24.13 dB 3:18 04-Panufnik: Private Joe: Iv. From Albert to Bapaume
DR15 -4.09 dB -25.24 dB 6:31 05-Panufnik: Private Joe: V. Letter 2
DR14 -5.73 dB -26.43 dB 7:57 06-Panufnik: Canto
DR11 -9.25 dB -24.61 dB 3:41 07-Panufnik: Letter from Burma: I. Aung-ze Paing-ze
DR11 -3.77 dB -22.33 dB 1:48 08-Panufnik: Letter from Burma: Ii. Young Birds Outside Cages
DR12 -7.31 dB -26.41 dB 2:55 09-Panufnik: Letter from Burma: Iii. Thazin
DR13 -1.57 dB -20.71 dB 2:17 10-Panufnik: Letter from Burma: Iv. Kintha Dance
DR16 -1.33 dB -23.46 dB 7:32 11-Panufnik: Hora Bessarabia
DR14 -0.93 dB -21.00 dB 13:55 12-Panufnik: Cantator and Amanda
DR15 -1.44 dB -22.69 dB 9:51 13-Panufnik: Second Home
DR14 -2.76 dB -21.66 dB 5:43 14-Panufnik: Heartfelt: I. Uzbek Processional
DR15 -2.04 dB -24.44 dB 5:39 15-Panufnik: Heartfelt: Ii. Lament for a Bulgarian Dancing Bear
––––––––––––––––––––––––––––––––––––––––

Number of tracks: 15
Official DR value: DR14

Samplerate: 96000 Hz
Channels: 2
Bits per sample: 24
Bitrate: 2575 kbps
Codec: FLAC
================================================================================


Thanks to the Original customer!