Same Player Shoot Again - Our King Albert (2021) [Official Digital Download 24/88]

Posted By: El Misha
Same Player Shoot Again - Our King Albert (2021) [Official Digital Download 24/88]

Same Player Shoot Again - Our King Albert (2021)
FLAC (tracks) 24-bit/88.20 kHz | Time - 01:03:59 | 1.21 GB
Studio Master, Official Digital Download | Artwork: Front cover+digital booklet

It was in 2018 that this young group, formed by the cream of Parisian musicians, decided to record a tribute to the king of blues guitarists Freddie King. "Our King Freddie" was such a success for a 1st opus, that the group saw itself grow wings… a Cahors blues festival Prize 2019 and a very nice tour later, here they are again in the studio, this time. for a tribute to Albert King… “Our King Albert”.

Same Player Shoot Again is founded by Romain Roussouliere (guitar) and Max Darmon (bass). The group is expanding with Vincent Vella (vocals), Florian Robin (keyboards), Steve Belmonte (drums), Jérome Cornelis (alto sax) and Loic Gayot (tenor sax).

The band of friends grew up in this music. We can even say that the blues is endemic in some of them.

The choice of the artist to pay homage to is natural, the selection of titles is collegial, rather happy and each tribute highlights with great virtuosity titles that are sometimes rare or even unknown to the public.



Tracklist:

1. Get Out Of My Life Woman (4:35)
2. Playing On Me (3:17)
3. I Wanna Get Funky (5:26)
4. I'll Play The Blues For You (5:01)
5. As The Years Go Passing By (3:36)
6. Born Under A Bad Sign (3:23)
7. Till My Back Ain't Got No Bone (6:04)
8. Honky Tonk Woman (4:11)
9. We All Wanna Boogie (4:11)
10. Crosscut Saw (5:22)
11. Oh Pretty Woman (3:47)
12. My Babe (5:05)
13. Angel Of Mercy (5:46)
14. The Very Thought Of You (4:18)

foobar2000 1.4 / Dynamic Range Meter 1.1.1
log date: 2021-06-08 05:06:40

––––––––––––––––––––––––––––––––––––––––
Analyzed: Same Player Shoot Again / Our King Albert
––––––––––––––––––––––––––––––––––––––––

DR Peak RMS Duration Track
––––––––––––––––––––––––––––––––––––––––
DR9 -1.87 dB -13.11 dB 4:36 01-Get out of My Life Woman
DR10 -1.80 dB -13.68 dB 3:17 02-Playing on Me
DR8 -1.81 dB -12.71 dB 5:26 03-I Wanna Get Funky
DR12 -0.46 dB -14.50 dB 5:02 04-I'll Play the Blues for You
DR10 -1.25 dB -14.16 dB 3:37 05-As the Years Go Passing By
DR9 -1.39 dB -12.12 dB 3:23 06-Born Under a Bad Sign
DR8 -1.50 dB -14.11 dB 6:04 07-Till My Back Ain't Got No Bone
DR8 -2.20 dB -12.61 dB 4:11 08-Honky Tonk Woman
DR9 -1.85 dB -13.25 dB 4:11 09-We All Wanna Boogie
DR10 -2.01 dB -13.24 dB 5:23 10-Crosscut Saw
DR10 -1.30 dB -13.36 dB 3:47 11-Oh Pretty Woman
DR10 -2.18 dB -13.72 dB 5:05 12-My Babe
DR9 -1.76 dB -13.82 dB 5:46 13-Angel of Mercy
DR10 -2.05 dB -16.09 dB 4:18 14-The Very Thought of You
––––––––––––––––––––––––––––––––––––––––

Number of tracks: 14
Official DR value: DR9

Samplerate: 88200 Hz
Channels: 2
Bits per sample: 24
Bitrate: 2404 kbps
Codec: FLAC
================================================================================



Thanks to the Original customer!