Tags
Language
Tags
May 2024
Su Mo Tu We Th Fr Sa
28 29 30 1 2 3 4
5 6 7 8 9 10 11
12 13 14 15 16 17 18
19 20 21 22 23 24 25
26 27 28 29 30 31 1

Sammal - Aika laulaa (2022) [Official Digital Download 24/96]

Posted By: delpotro
Sammal - Aika laulaa (2022) [Official Digital Download 24/96]

Sammal - Aika laulaa (2022)
FLAC (tracks) 24-bit/96 kHz | Front Cover | Time - 42:19 minutes | 966 MB
Psychedelic Rock | Label: Svart Records, Official Digital Download

Finnish prog-psych quintet Sammal sheds skin and changes into a power trio, new album announced.

Sammal have since their 2013 debut cemented their reputation as one of the leaders of the Fenno-Ugrian neoprogressive and psychedelic scene and also raised some waves internationally, performing at the well respected Roadburn Festival in 2015 and garnering a series of raving reviews around the world of psychedelia and progressive rock fandom, such as “Truly amazing and otherworldy music” or “Earnest, vibrant music specked with impressive nuance”. A few years have passed since the successful Suuliekki album, and since then two of their five members have left the fold. Guitarist and songwriter Jura Salmi decided, however, that Sammal must continue in some form or another.

“During the spring of 2020 I would spend time alone recording new demos with the guitar. The remaining three Sammal members had already decided that if the band was to continue, we would not seek another keyboard player.I had bought a guitar pedal that can simulate keyboard sounds and it opened a new world to me. I realized we can perform fine as a power trio without a bass or a keyboard player”, comments Jura Salmi.

“Sammal has always been a melting pot of all music we like. If in the past we used to be heavily into bands lke Camel, Dungen and Opeth, when working on this album we’d listen to everything from Bo Hansson and Iron Butterfly to Type O Negative and Whitesnake”, laughs Salmi and continues, “We’d also pick the language of a song’s lyrics based on what we felt would fit the mood of the song. This album has songs in Finnish, Swedish and English.”

 Sammal’s unexpected prog-psych-boogie epic Aika laulaa will be released on November 18th on all platforms as well as on CD and LP.

Tracklist:
01. På knivan
02. Sehr kryptisch
03. Returning Rivers
04. On aika laulaa
05. Jos ei pelaa
06. λ
07. Grym maskin
08. Katse vuotaa

foobar2000 1.4.1 / Dynamic Range Meter 1.1.1
log date: 2022-11-20 13:07:06

––––––––––––––––––––––––––––––––––––––––
Analyzed: Sammal / Aika laulaa
––––––––––––––––––––––––––––––––––––––––

DR Peak RMS Duration Track
––––––––––––––––––––––––––––––––––––––––
DR6 -1.05 dB -8.28 dB 3:30 01-På knivan
DR6 -1.05 dB -7.78 dB 4:07 02-Sehr kryptisch
DR6 -1.06 dB -7.94 dB 5:00 03-Returning Rivers
DR6 -1.05 dB -8.16 dB 7:19 04-On aika laulaa
DR6 -1.05 dB -8.31 dB 3:13 05-Jos ei pelaa
DR6 -1.05 dB -8.07 dB 5:52 06-λ
DR6 -1.05 dB -8.72 dB 5:51 07-Grym maskin
DR6 -1.04 dB -9.06 dB 7:28 08-Katse vuotaa
––––––––––––––––––––––––––––––––––––––––

Number of tracks: 8
Official DR value: DR6

Samplerate: 96000 Hz
Channels: 2
Bits per sample: 24
Bitrate: 3147 kbps
Codec: FLAC
================================================================================


Thanks to the Original customer!