Sault - Untitled (Black Is) (2020) [Official Digital Download 24/44-48]

Posted By: delpotro
Sault - Untitled (Black Is) (2020) [Official Digital Download 24/44-48]

Sault - Untitled (Black Is) (2020)
FLAC (tracks) 24-bit/44,1-48 kHz | Front Cover | Time - 54:34 minutes | 609 MB
Soul, Funk, Alternative | Label: Forever Living Originals, Official Digital Download

The mysterious Sault return with album number three that was announced when the whole album was played on BBC 6 Music’s Gilles Peterson’s show. This is the most essential album for 2020. The 18 track album is an absolute joy whilst delivering a powerful message. Each tracks title nods towards revolution, expression and a celebration of black culture. The sound once again mixes R&B, funk, soul and hip-hop together. For fans of classic soul, ESG and groove.

Tracklist:
1. Out The Lies (02:01)
2. Stop Dem (03:38)
3. Hard Life (04:34)
4. Don't Shoot Guns Down (01:53)
5. Wildfires (03:27)
6. X (01:24)
7. Sorry Ain't Enough (05:00)
8. Black Is (01:53)
9. Bow feat Michael Kiwanuka (04:05)
10. This Generation feat Laurette Josiah (00:47)
11. Why We Cry Why We Die (02:44)
12. Black (03:54)
13. US (01:06)
14. Eternal Life (03:59)
15. Only Synth in Church (00:56)
16. Monsters (03:28)
17. June Child (00:59)
18. Miracles (04:18)
19. Hold Me (02:45)
20. Pray Up Stay Up (03:45)

foobar2000 1.4.1 / Dynamic Range Meter 1.1.1
log date: 2021-01-04 17:37:45

––––––––––––––––––––––––––––––––––––––––
Analyzed: SAULT / UNTITLED (Black Is)
––––––––––––––––––––––––––––––––––––––––

DR Peak RMS Duration Track
––––––––––––––––––––––––––––––––––––––––
DR7 -0.25 dB -8.84 dB 3:38 02-Stop Dem
DR6 -0.21 dB -8.66 dB 4:34 03-Hard Life
DR7 -0.25 dB -7.86 dB 1:53 04-Don't Shoot Guns Down
DR7 -0.19 dB -8.50 dB 3:27 05-Wildfires
DR13 0.00 dB -16.21 dB 1:24 06-X
DR9 -0.26 dB -12.15 dB 5:00 07-Sorry Ain't Enough
DR16 -5.29 dB -24.16 dB 1:53 08-Black Is
DR6 -0.28 dB -7.99 dB 4:05 09-Bow feat Michael Kiwanuka
DR12 0.00 dB -15.99 dB 0:47 10-This Generation feat Laurette Josiah
DR7 -0.27 dB -8.29 dB 2:44 11-Why We Cry Why We Die
DR7 -0.26 dB -8.98 dB 3:54 12-Black
DR11 -1.29 dB -16.00 dB 1:06 13-US
DR6 -0.22 dB -8.80 dB 3:59 14-Eternal Life
DR11 -3.42 dB -17.59 dB 0:56 15-Only Synth in Church
DR7 -0.25 dB -9.42 dB 3:28 16-Monsters
DR15 -3.92 dB -22.00 dB 0:59 17-June Child
DR9 -0.26 dB -11.00 dB 4:18 18-Miracles
DR10 -0.27 dB -10.67 dB 2:45 19-Hold Me
DR8 -0.24 dB -9.25 dB 3:45 20-Pray Up Stay Up
––––––––––––––––––––––––––––––––––––––––

Number of tracks: 19
Official DR value: DR9

Samplerate: 48000 Hz
Channels: 2
Bits per sample: 24
Bitrate: 1561 kbps
Codec: FLAC
================================================================================

foobar2000 1.4.1 / Dynamic Range Meter 1.1.1
log date: 2021-01-04 17:34:20

––––––––––––––––––––––––––––––––––––––––
Statistics for: 01-Out The Lies
Number of samples: 5337149
Duration: 2:01
––––––––––––––––––––––––––––––––––––––––

Left Right

Peak Value: -3.71 dB –- -3.39 dB
Avg RMS: -18.74 dB –- -18.25 dB
DR channel: 9.95 dB –- 9.21 dB
––––––––––––––––––––––––––––––––––––––––

Official DR Value: DR10

Samplerate: 44100 Hz
Channels: 2
Bits per sample: 24
Bitrate: 1283 kbps
Codec: FLAC
================================================================================

Thanks to the Original customer!