The Royal Scottish National Orchestra - A Festival of Fučík (2015) [Official Digital Download 24/96]

Posted By: El Misha
The Royal Scottish National Orchestra - A Festival of Fučík (2015) [Official Digital Download 24/96]

The Royal Scottish National Orchestra - A Festival of Fučík (2015)
FLAC (tracks) 24-bit/96 kHz | Time - 01:19:46 | 1.43 GB
Studio Master, Official Digital Download | Artwork: Front cover+digital booklet

Best known for his ubiquitous circus march, Entry of the Gladiators (also known as Thunder and Blazes), Julius Fucík, the "Bohemian Sousa," was a prolific composer of band and orchestral music in the late 19th and early 20th centuries. While his marches, waltzes, and polkas are still popular in the Czech Republic, they have largely faded from the Western orchestral repertoire. Neeme Järvi and the Royal Scottish National Orchestra have released this hybrid SACD collection on Chandos to revive some tuneful bonbons that deserve a fresh reassessment and a place on programs of light music. In addition to Entry of the Gladiators, highlights of this album include the Florentiner March, Danube Legends, Little Ballerinas, and Under the Admiral's Flag, which are examples of Fucík's infectious melodies, rousing rhythms, and zestful orchestration. The multichannel recording offers a spacious ambience that fully accommodates the orchestra's bold, brassy quality.
© TiVo



Tracklist:

1. The Royal Scottish National Orchestra - Marinarella, Op. 215
2. The Royal Scottish National Orchestra - Onkel Teddy (Uncle Teddy), Op. 239 (version for orchestra)
3. The Royal Scottish National Orchestra - Andantino -
4. The Royal Scottish National Orchestra - I. Tempo di valse -
5. The Royal Scottish National Orchestra - II. Con dolcezza -
6. The Royal Scottish National Orchestra - III. — -
7. The Royal Scottish National Orchestra - Coda
8. The Royal Scottish National Orchestra - Die lustigen Dorfschmiede (The Merry Blacksmiths), Op. 218
9. David Hubbard - Der alte Brummbar (The Old Grumbler), Op. 210
10. The Royal Scottish National Orchestra - Einzug der Gladiatoren (The Entry of the Gladiators), Op. 68, "Triumph March"
11. The Royal Scottish National Orchestra - Miramare, Op. 247
12. The Royal Scottish National Orchestra - Florentiner Marsch (Florentine March), Op. 214, "Grande marcia Italiana"
13. Aleksei Kiseliov - Wintersturme (Winter Storms), Op. 184 (arr. P. Stanek for orchestra)
14. The Royal Scottish National Orchestra - Hercegovac, Op. 235
15. The Royal Scottish National Orchestra - Regimentskinder (Children of the Regiment), Op. 169
16. The Royal Scottish National Orchestra - Allegretto -
17. The Royal Scottish National Orchestra - I. Tempo di valse -
18. The Royal Scottish National Orchestra - II. Meno con delicatezza -
19. The Royal Scottish National Orchestra - III. Meno mosso -
20. The Royal Scottish National Orchestra - Coda
21. The Royal Scottish National Orchestra - The Mississippi River, Op. 160 (161)
22. The Royal Scottish National Orchestra - Unter der Admiralsflagge (Under the Admiral's Flag), Op. 82

foobar2000 1.4 / Dynamic Range Meter 1.1.1
log date: 2021-04-07 21:37:59

––––––––––––––––––––––––––––––––––––––––
Analyzed: Aleksei Kiseliov / A Festival of Fučík (1)
David Hubbard / A Festival of Fučík (2)
The Royal Scottish National Orchestra / A Festival of Fučík (3-22)
––––––––––––––––––––––––––––––––––––––––

DR Peak RMS Duration Track
––––––––––––––––––––––––––––––––––––––––
DR16 -0.55 dB -22.54 dB 9:23 13-Wintersturme (Winter Storms), Op. 184 (arr. P. Stanek for orchestra)
DR17 -3.35 dB -26.80 dB 5:03 09-Der alte Brummbar (The Old Grumbler), Op. 210
DR15 -0.42 dB -21.81 dB 10:59 01-Marinarella, Op. 215
DR15 -1.10 dB -20.88 dB 4:54 02-Onkel Teddy (Uncle Teddy), Op. 239 (version for orchestra)
DR14 -2.41 dB -24.52 dB 3:06 03-Andantino -
DR12 -4.45 dB -20.77 dB 1:48 04-I. Tempo di valse -
DR13 -4.70 dB -21.53 dB 1:52 05-II. Con dolcezza -
DR14 -3.76 dB -26.25 dB 1:25 06-III. — -
DR13 -0.12 dB -21.11 dB 2:10 07-Coda
DR13 -3.59 dB -21.97 dB 2:37 08-Die lustigen Dorfschmiede (The Merry Blacksmiths), Op. 218
DR12 -2.10 dB -18.78 dB 2:39 10-Einzug der Gladiatoren (The Entry of the Gladiators), Op. 68, "Triumph March"
DR14 -2.58 dB -24.20 dB 7:50 11-Miramare, Op. 247
DR13 -3.81 dB -21.78 dB 5:23 12-Florentiner Marsch (Florentine March), Op. 214, "Grande marcia Italiana"
DR14 -3.90 dB -20.79 dB 2:59 14-Hercegovac, Op. 235
DR13 -1.08 dB -18.76 dB 3:05 15-Regimentskinder (Children of the Regiment), Op. 169
DR13 -2.77 dB -23.46 dB 1:25 16-Allegretto -
DR12 -7.54 dB -22.95 dB 1:48 17-I. Tempo di valse -
DR12 -6.68 dB -22.66 dB 1:23 18-II. Meno con delicatezza -
DR13 -6.59 dB -28.28 dB 1:36 19-III. Meno mosso -
DR15 -2.03 dB -22.04 dB 1:54 20-Coda
DR15 -5.05 dB -24.55 dB 2:47 21-The Mississippi River, Op. 160 (161)
DR12 -0.06 dB -20.20 dB 3:45 22-Unter der Admiralsflagge (Under the Admiral's Flag), Op. 82
––––––––––––––––––––––––––––––––––––––––

Number of tracks: 22
Official DR value: DR14

Samplerate: 96000 Hz
Channels: 2
Bits per sample: 24
Bitrate: 2647 kbps
Codec: FLAC
================================================================================



Thanks to the Original customer!