Sin Fang - The Last Shall Be First (2020) [Official Digital Download]

Posted By: El Misha
Sin Fang - The Last Shall Be First (2020) [Official Digital Download]

Sin Fang - The Last Shall Be First (2020)
FLAC (tracks) 24-bit/44.10 kHz | Time - 26:06 | 679 MB
Studio Master, Official Digital Download | Artwork: Front cover

The solo project of singer/songwriter and Seabear founder Sindri Már Sigfússon, Sin Fang explores the crossroads of intimate indie rock, '60s pop, Icelandic folk, and indie electronica. After releasing debut album Clangour as Sin Fang Bous in 2009, Sigfússon shorted the project's name to Sin Fang. He favored a glitchy electronic palette on fourth album Spaceland (2016) before collaborating with Sóley and Múm's Örvar Smárason on the soft-spoken, electro-acoustic Team Dreams in 2017. Hailing from Reykjavik, Sigfússon started Seabear as a solo effort before it morphed into a seven-piece for the 2007 project debut Ghost That Carried Us Away. The follow-up, We Built a Fire, arrived in 2010. Striking back out on his own, Sin Fang – originally Sin Fang Bous – found Sigfússon delving into similarly minded territory with music that combined elements of indie pop, rock, folk and electronic styles. Sin Fang Bous released its debut album, Clangour, on Morr Music in 2009. In 2011, Sigfússon dropped the "Bous" for his sophomore effort, Summer Echoes. Flowers, which arrived in early 2013, offered a more anthemic take on the project's sound. Keeping a relatively intimate tone but leaving behind any remaining folk elements for electronics, Spaceland was released by Morr Music in 2016. Guests on the album included fellow Nordic solo artists Jónsi, Sóley, and Farao. Sin Fang and Sóley teamed up again, this time with Örvar Smárason, for 2017's Team Dreams, a balanced collaboration credited to all three of them. With guests including Summer Echoes rhythm section Arnljótur Sigurdsson (bass) and Magnús Trygvason Eliassen (drums), 2019's Sad Party opted for dreamy synth pop.
© Matt Collar /TiVo



Tracklist:

01. Sin Fang - Good Heart
02. Sin Fang - Lost Girls
03. Sin Fang - Dripdrop
04. Sin Fang - Dark Matter
05. Sin Fang - Wasteman
06. Sin Fang - Stranger
07. Sin Fang - Maybe Never
08. Sin Fang - Hollow Piano

foobar2000 1.4 / Dynamic Range Meter 1.1.1
log date: 2020-12-03 06:30:56

––––––––––––––––––––––––––––––––––––––––
Analyzed: Sin Fang / The Last Shall Be First
––––––––––––––––––––––––––––––––––––––––

DR Peak RMS Duration Track
––––––––––––––––––––––––––––––––––––––––
DR11 -1.65 dB -14.91 dB 3:06 01-Good Heart
DR9 -2.05 dB -15.53 dB 2:35 02-Lost Girls
DR9 -3.79 dB -14.96 dB 2:42 03-Dripdrop
DR9 -2.19 dB -12.72 dB 3:31 04-Dark Matter
DR9 -1.05 dB -11.96 dB 3:45 05-Wasteman
DR10 0.00 dB -11.83 dB 3:21 06-Stranger
DR10 -2.03 dB -14.49 dB 3:22 07-Maybe Never
DR12 -0.27 dB -17.45 dB 3:44 08-Hollow Piano
––––––––––––––––––––––––––––––––––––––––

Number of tracks: 8
Official DR value: DR10

Samplerate: 44100 Hz
Channels: 2
Bits per sample: 24
Bitrate: 1428 kbps
Codec: FLAC
================================================================================



Thanks to the Original customer!