The Okee Dokee Brothers - Songs for Singin' (2020) [Official Digital Download 24/96]

Posted By: El Misha
The Okee Dokee Brothers - Songs for Singin' (2020) [Official Digital Download 24/96]

The Okee Dokee Brothers - Songs for Singin' (2020)
FLAC (tracks) 24-bit/96 kHz | Time - 01:10:34 | 1.46 GB
Studio Master, Official Digital Download | Artwork: Front cover

As childhood friends growing up in Denver Colorado, Joe Mailander and Justin Lansing were always exploring the outdoors. Whether it was rafting down their neighborhood creek or discovering hiking trails through the Rocky Mountains, Joe and Justin were born adventurers. Now, as the GRAMMY® Award-winning Okee Dokee Brothers, they have put this passion for the outdoors at the heart of their Americana Folk music.



Tracklist:

01. Hope Machine
02. Early Bird
03. Neighborhood Band
04. One Little Heart
05. Sally-O
06. If You Want a Song
07. Jubilation
08. Music Train
09. Sunnyside Up
10. Afternoon Walk
11. Colors
12. Wastin' Time
13. Grandmaderation
14. You Are the One
15. Language of the Flowers
16. Raise a Ruckus
17. Campin'
18. In My Bones
19. Let's Throw a Party
20. Jumbo Gumbo
21. Ask Away
22. Church of the Woods
23. Singin' For Me Supper
24. Go Slow
25. Thank You
26. Seasons in a Day
27. Hushabye

foobar2000 1.4 / Dynamic Range Meter 1.1.1
log date: 2020-05-02 06:58:48

––––––––––––––––––––––––––––––––––––––––
Analyzed: The Okee Dokee Brothers / Songs for Singin'
––––––––––––––––––––––––––––––––––––––––

DR Peak RMS Duration Track
––––––––––––––––––––––––––––––––––––––––
DR9 -0.81 dB -12.08 dB 2:49 01-Hope Machine
DR9 -0.81 dB -11.53 dB 2:41 02-Early Bird
DR9 -0.81 dB -10.96 dB 3:20 03-Neighborhood Band
DR11 -0.85 dB -13.76 dB 2:06 04-One Little Heart
DR9 -0.81 dB -11.18 dB 2:25 05-Sally-O
DR8 -0.80 dB -10.38 dB 2:01 06-If You Want a Song
DR8 -0.81 dB -11.13 dB 3:11 07-Jubilation
DR9 -0.80 dB -11.79 dB 2:43 08-Music Train
DR11 -0.81 dB -13.62 dB 2:06 09-Sunnyside Up
DR10 -0.81 dB -12.83 dB 2:26 10-Afternoon Walk
DR9 -0.81 dB -11.97 dB 2:46 11-Colors
DR9 -0.81 dB -11.67 dB 2:30 12-Wastin' Time
DR8 -0.81 dB -11.00 dB 2:49 13-Grandmaderation
DR8 -0.80 dB -11.27 dB 2:47 14-You Are the One
DR12 -0.82 dB -14.75 dB 3:25 15-Language of the Flowers
DR8 -0.80 dB -10.27 dB 2:49 16-Raise a Ruckus
DR10 -0.81 dB -12.86 dB 3:12 17-Campin'
DR11 -0.81 dB -13.88 dB 1:47 18-In My Bones
DR8 -0.81 dB -10.81 dB 2:45 19-Let's Throw a Party
DR9 -0.80 dB -11.94 dB 2:25 20-Jumbo Gumbo
DR11 -0.82 dB -14.57 dB 2:41 21-Ask Away
DR11 -0.82 dB -14.35 dB 2:19 22-Church of the Woods
DR9 -0.80 dB -11.46 dB 2:20 23-Singin' For Me Supper
DR9 -0.82 dB -12.85 dB 2:57 24-Go Slow
DR11 -0.81 dB -13.94 dB 2:03 25-Thank You
DR11 -0.82 dB -13.43 dB 2:48 26-Seasons in a Day
DR11 -0.82 dB -14.86 dB 2:38 27-Hushabye
––––––––––––––––––––––––––––––––––––––––

Number of tracks: 27
Official DR value: DR10

Samplerate: 96000 Hz
Channels: 2
Bits per sample: 24
Bitrate: 2747 kbps
Codec: FLAC
================================================================================



Thanks to the Original customer!