Stone Foundation - Is Love Enough? (Deluxe Edition) (2021) [Official Digital Download 24/44-48]

Posted By: delpotro
Stone Foundation - Is Love Enough? (Deluxe Edition) (2021) [Official Digital Download 24/44-48]

Stone Foundation - Is Love Enough? (Deluxe Edition) (2021)
FLAC (tracks) 24-bit/44,1-48 kHz | Front Cover | Time - 146:03 minutes | 1,57 GB
R'n'B, Soul | Label: 100% Records, Official Digital Download

'Is Love Enough?' is the band's sixth studio album and was recorded at Paul Weller's Black Barn Studios in Surrey and produced by Stone Foundation's founding members Neil Jones and Neil Sheasby. It continues their fruitful collaboration with Paul Weller who produced 2017's 'Street Rituals' and played on 2018's 'Everybody Anyone'.

Tracklist:
Disc 1 (53:26)
1. Love's Intro (00:36)
2. Freedom Starts! (04:15)
3. Changes (04:41)
4. Deeper Love (04:30)
5. Love's Interlude (I) (00:34)
6. Hold on to Love (03:02)
7. The Light in Us (04:38)
8. Is Love Enough? (04:58)
9. Love’s Interlude (II) (00:51)
10. Learn to Love Again (04:34)
11. AF-RI-KA (03:26)
12. Picture a Life (05:06)
13. Help Me (03:29)
14. Love's Interlude (III) (01:12)
15. 83: This is Our Time (03:55)
16. Last Act of Love (02:55)
17. Love's Outro (00:44)

Disc 2 (01:32:19)
1. Going Back to My Roots (04:47)
2. Deeper Love (Opolopo Remix) (07:22)
3. The Light in Us (Boogie Back Soul Weekender Remix) (03:34)
4. Deeper Love (Boogie Back Late Night Jazz Funk Mix) (04:28)
5. Changes (Radio Session) (04:52)
6. Deeper Love (Radio Session) (04:25)
7. Help Me (Radio Session) (04:00)
8. Hold on to Love (Radio Session) (03:10)
9. Deeper Love (7" Mix) (03:25)
10. Love's Getting Deeper (Good Vibes Mix) (02:38)
11. Freedom Starts! (Instrumental) (04:15)
12. Changes (Instrumental) (04:41)
13. Deeper Love (Instrumental) (04:30)
14. Hold On To Love (Instrumental) (03:02)
15. The Light In Us (Instrumental) (04:39)
16. Is Love Enough? (Instrumental) (04:59)
17. Learn To Love Again (Instrumental) (04:34)
18. AF-RI-KA (Instrumental) (03:26)
19. Picture A Life (Instrumental) (05:06)
20. Help Me (Instrumental) (03:35)
21. 83: This is Our Time (Instrumental) (03:55)
22. Last Act Of Love (Instrumental) (02:56)

foobar2000 1.4.1 / Dynamic Range Meter 1.1.1
log date: 2021-06-11 11:55:23

––––––––––––––––––––––––––––––––––––––––
Analyzed: Stone Foundation / Is Love Enough? (Deluxe)
––––––––––––––––––––––––––––––––––––––––

DR Peak RMS Duration Track
––––––––––––––––––––––––––––––––––––––––
DR10 -4.60 dB -21.26 dB 0:36 01-Love's Intro
DR8 -0.20 dB -9.61 dB 4:16 02-Freedom Starts!
DR8 -0.20 dB -10.15 dB 4:41 03-Changes
DR9 -0.20 dB -9.91 dB 4:30 04-Deeper Love
DR9 -1.98 dB -16.25 dB 0:34 05-Love's Interlude (I)
DR8 -0.20 dB -9.79 dB 3:03 06-Hold on to Love
DR8 -0.20 dB -9.76 dB 4:39 07-The Light in Us
DR8 -0.20 dB -10.05 dB 4:59 08-Is Love Enough?
DR10 -7.56 dB -20.09 dB 0:52 09-Love's Interlude (Ii)
DR8 -0.20 dB -9.97 dB 4:34 10-Learn to Love Again
DR8 -0.20 dB -9.41 dB 3:27 11-Af-Ri-Ka
DR8 -0.20 dB -9.73 dB 5:06 12-Picture a Life
DR8 -0.20 dB -9.46 dB 3:29 13-Help Me
DR11 -1.46 dB -15.82 dB 1:12 14-Love's Interlude (III)
DR10 -0.20 dB -11.48 dB 3:56 15-83: This is Our Time
DR8 -0.20 dB -9.42 dB 2:55 16-Last Act of Love
DR10 -5.39 dB -21.07 dB 0:45 17-Love's Outro
DR8 -0.20 dB -9.44 dB 4:48 18-Going Back to My Roots
DR8 -0.20 dB -9.11 dB 7:22 19-Deeper Love (Opolopo Remix)
DR9 -0.20 dB -10.82 dB 3:35 20-The Light in Us (Boogie Back Soul Weekender Remix)
DR9 -0.20 dB -11.26 dB 4:28 21-Deeper Love (Boogie Back Late Night Jazz Funk Mix)
DR9 -0.20 dB -9.99 dB 3:26 26-Deeper Love (7" Mix)
DR9 -0.20 dB -10.48 dB 4:16 28-Freedom Starts! (Instrumental)
DR10 -0.20 dB -11.61 dB 4:41 29-Changes (Instrumental)
DR9 -0.20 dB -10.34 dB 4:30 30-Deeper Love (Instrumental)
DR10 -0.20 dB -10.97 dB 3:03 31-Hold On To Love (Instrumental)
DR9 -0.20 dB -10.55 dB 4:39 32-The Light In Us (Instrumental)
DR8 -0.20 dB -10.67 dB 5:00 33-Is Love Enough? (Instrumental)
DR9 -0.20 dB -10.54 dB 4:34 34-Learn To Love Again (Instrumental)
DR9 -0.20 dB -9.87 dB 3:27 35-AF-RI-KA (Instrumental)
DR9 -0.20 dB -10.96 dB 5:06 36-Picture A Life (Instrumental)
DR8 -0.20 dB -9.96 dB 3:36 37-Help Me (Instrumental)
DR11 -0.20 dB -12.45 dB 3:56 38-83: This is Our Time (Instrumental)
DR9 -0.20 dB -10.34 dB 2:56 39-Last Act Of Love (Instrumental)
––––––––––––––––––––––––––––––––––––––––

Number of tracks: 34
Official DR value: DR9

Samplerate: 44100 Hz
Channels: 2
Bits per sample: 24
Bitrate: 1469 kbps
Codec: FLAC
================================================================================

––––––––––––––––––––––––––––––––––––––––
Analyzed: Stone Foundation / Is Love Enough? (Deluxe)
––––––––––––––––––––––––––––––––––––––––

DR Peak RMS Duration Track
––––––––––––––––––––––––––––––––––––––––
DR8 -0.30 dB -10.06 dB 4:52 22-Changes (Radio Session) (48 kHz)
DR6 -0.30 dB -7.42 dB 4:26 23-Deeper Love (Radio Session) (48 kHz)
DR8 -0.30 dB -9.18 dB 4:00 24-Help Me (Radio Session) (48 kHz)
DR9 -0.30 dB -10.63 dB 3:11 25-Hold on to Love (Radio Session) (48 kHz)
DR11 -0.39 dB -12.97 dB 2:39 27-Love's Getting Deeper (Good Vibes Mix) (48 kHz)
––––––––––––––––––––––––––––––––––––––––

Number of tracks: 5
Official DR value: DR8

Samplerate: 48000 Hz
Channels: 2
Bits per sample: 24
Bitrate: 1431 kbps
Codec: FLAC
================================================================================


Thanks to the Original customer!