Tags
Language
Tags

Sturgill Simpson - The Ballad of Dood & Juanita (2021) [Official Digital Download 24/96]

Posted By: delpotro
Sturgill Simpson - The Ballad of Dood & Juanita (2021) [Official Digital Download 24/96]

Sturgill Simpson - The Ballad of Dood & Juanita (2021)
FLAC (tracks) 24-bit/96 kHz | Front Cover | Time - 27:52 minutes | 595 MB
Bluegrass | Label: High Top Mountain, Official Digital Download

Inspired by such classic concept albums as Willie Nelson's Red-Headed Stranger, Sturgill Simpson's The Ballad of Dood & Juanita is the Grammy-winning singer/songwriter's third album in twelve months, and his most ambitious project to date. Written and recorded in less than a week, and featuring the same ace musicians who played on last year's Cuttin' Grass albums, the record tells a classic American story of a Civil War-era couple torn apart by violence and reunited by love—what Simpson calls "a simple tale of either redemption or revenge."

Tracklist:
01. Prologue
02. Ol' Dood (Part I)
03. One in the Saddle, One on the Ground
04. Shamrock
05. Played Out
06. Sam
07. Juanita (feat. Willie Nelson)
08. Go in Peace
09. Epilogue
10. Ol' Dood (Part II)

foobar2000 1.4.1 / Dynamic Range Meter 1.1.1
log date: 2021-08-20 07:53:49

––––––––––––––––––––––––––––––––––––––––
Analyzed: Sturgill Simpson / The Ballad of Dood & Juanita
––––––––––––––––––––––––––––––––––––––––

DR Peak RMS Duration Track
––––––––––––––––––––––––––––––––––––––––
DR9 -0.50 dB -12.42 dB 1:02 01-Prologue
DR8 -0.50 dB -9.56 dB 2:58 02-Ol' Dood (Part I)
DR10 -0.50 dB -12.76 dB 3:16 03-One in the Saddle, One on the Ground
DR7 -0.50 dB -9.02 dB 4:41 04-Shamrock
DR9 -0.50 dB -11.95 dB 3:25 05-Played Out
DR11 -0.50 dB -13.39 dB 1:13 06-Sam
DR8 -0.50 dB -10.20 dB 3:41 07-Juanita (feat. Willie Nelson)
DR6 -0.50 dB -7.10 dB 2:38 08-Go in Peace
DR8 -0.50 dB -12.04 dB 0:37 09-Epilogue
DR7 -0.50 dB -10.96 dB 4:22 10-Ol' Dood (Part II)
––––––––––––––––––––––––––––––––––––––––

Number of tracks: 10
Official DR value: DR8

Samplerate: 96000 Hz
Channels: 2
Bits per sample: 24
Bitrate: 3024 kbps
Codec: FLAC
================================================================================


Thanks to the Original customer!