Tags
Language
Tags

Sunburned Hand of the Man - Live to Burn (2021) [Official Digital Download]

Posted By: delpotro
Sunburned Hand of the Man - Live to Burn (2021) [Official Digital Download]

Sunburned Hand of the Man - Live to Burn (2021)
FLAC (tracks) 24-bit/44,1 kHz | Front Cover | Time - 183:16 minutes | 2,02 GB
Psychedelic Rock | Label: Sunburned Hand of the Man, Official Digital Download

Recorded live in 2016 - 2019. Cut ups and highlight reels. edited by John Moloney & Robert Thomas 2020-2021.

Tracks 1-3 - State House, New Haven CT - Sept. 2018. The show was with Headroom.

Tracks 4-8 - Space Ballroom, Hamden, CT. Oct 2019.
We opened for Mike Watt & The Missingmen.

Tracks 9-14 - Tubby's, Kingston, NY. Oct 2019.
We played with Wet Tuna & Franklin's Mint.

Track 15 - Reverberation Vinyl, Bloomington, IL.
We played with Garcia Peoples, Dire Wolves and Bill Mackay.

Tracks 16-17 - Nublu, Manhattan, NY.
We opened for Garcia Peoples at their residency.

Tracks 18 - 20 - Amherst Common, Freestone or Ooze Fest, 2017.

Track 19 - Amherst Common, Freestone or Ooze Fest, 2016.

Tracklist:
1. D.M. With The Alien (NH) (22:44)
2. Dip, Die, Dose (NH) (07:14)
3. Filth Test (NH) (06:34)
4. Three Letter Drugs (Hamden) (08:16)
5. Easy Edge (Hamden) (02:54)
6. Sausage Egg (Hamden) (03:31)
7. Older Eagle (Hamden) (05:27)
8. Tent-City Roller -Wedlock Cover - (Hamden) (12:20)
9. Microhats (Tubby's) (03:15)
10. The Lively Dance (Tubby's) (01:22)
11. Pump (Tubby's) (03:15)
12. Eddie Van Geezer (Tubby's) (03:30)
13. My Quiz (Tubby's) (05:03)
14. Daughter of Nothing (Tubby's) (03:52)
15. Yesterday's Map (Reverberation) (23:33)
16. Situation's Fix (Nublu) (18:26)
17. Touch Squad (Nublu) (06:26)
18. Mitchell's Mandate (Amherst '17) (15:11)
19. New Moose (Amherst '17) (09:11)
20. Sinking in the Late, Late Soup (Amherst '17) (02:36)
21. The Bigfoot Blues (Amherst '16) (18:38)

foobar2000 1.4.1 / Dynamic Range Meter 1.1.1
log date: 2021-08-22 14:26:03

––––––––––––––––––––––––––––––––––––––––
Analyzed: Sunburned Hand of the Man / Live to Burn
––––––––––––––––––––––––––––––––––––––––

DR Peak RMS Duration Track
––––––––––––––––––––––––––––––––––––––––
DR13 -0.10 dB -16.77 dB 22:44 01-D.M. With the Alien (NH)
DR11 -0.10 dB -14.38 dB 7:14 02-Dip, Die, Dose (NH)
DR12 -0.10 dB -14.83 dB 6:34 03-Filth Test (NH)
DR9 -0.10 dB -10.48 dB 8:16 04-Three Letter Drugs (Hamden)
DR9 -0.10 dB -10.02 dB 2:54 05-Easy Edge (Hamden)
DR8 -0.10 dB -11.43 dB 3:31 06-Sausage Egg (Hamden)
DR9 -0.10 dB -11.44 dB 5:27 07-Older Eagle (Hamden)
DR9 -0.10 dB -11.65 dB 12:20 08-Tent-City Roller -Wedlock Cover - (Hamden)
DR9 -0.10 dB -12.19 dB 3:15 09-Microhats (Tubby's)
DR7 -0.10 dB -8.81 dB 1:22 10-The Lively Dance (Tubby's)
DR7 -0.10 dB -8.80 dB 3:15 11-Pump (Tubby's)
DR6 -0.10 dB -7.37 dB 3:30 12-Eddie Van Geezer (Tubby's)
DR9 -0.10 dB -10.50 dB 5:03 13-My Quiz (Tubby's)
DR9 -0.10 dB -11.05 dB 3:52 14-Daughter of Nothing (Tubby's)
DR3 0.00 dB -6.76 dB 23:33 15-Yesterday's Map (Reverberation)
DR10 0.00 dB -13.28 dB 18:26 16-Situation's Fix (Nublu)
DR11 0.00 dB -12.64 dB 6:26 17-Touch Squad (Nublu)
DR0 0.00 dB -1.04 dB 15:11 18-Mitchell's Mandate (Amherst '17)
DR0 0.00 dB -0.61 dB 9:11 19-New Moose (Amherst '17)
DR0 0.00 dB -1.21 dB 2:36 20-Sinking in the Late, Late Soup (Amherst '17)
DR9 0.00 dB -10.59 dB 18:38 21-The Bigfoot Blues (Amherst '16)
––––––––––––––––––––––––––––––––––––––––

Number of tracks: 21
Official DR value: DR7

Samplerate: 44100 Hz
Channels: 2
Bits per sample: 24
Bitrate: 1536 kbps
Codec: FLAC
================================================================================


Thanks to the Original customer!