Tags
Language
Tags
March 2024
Su Mo Tu We Th Fr Sa
25 26 27 28 29 1 2
3 4 5 6 7 8 9
10 11 12 13 14 15 16
17 18 19 20 21 22 23
24 25 26 27 28 29 30
31 1 2 3 4 5 6
Attention❗ To save your time, in order to download anything on this site, you must be registered 👉 HERE. If you do not have a registration yet, it is better to do it right away. ✌

( • )( • ) ( ͡⚆ ͜ʖ ͡⚆ ) (‿ˠ‿)
SpicyMags.xyz

SWR Big Band & Torsten Maaß - Music Written by Real Life (Part I) (2023) [Official Digital Download]

Posted By: delpotro
SWR Big Band & Torsten Maaß - Music Written by Real Life (Part I) (2023) [Official Digital Download]

SWR Big Band & Torsten Maaß - Music Written by Real Life (Part I) (2023)
FLAC (tracks) 24-bit/44,1 kHz | Front Cover | Time - 35:39 minutes | 400 MB
Jazz, Big Band | Label: SWR Music, Official Digital Download

The established trumpeter Torsten Maaß has been working for numerous big bands as a composer, arranger and guest conductor for many years. He arranged for productions with Max Mutzke, Clueso, Ack van Rooyen and many more. a. Under his direction, the SWR Big Band plays a selection of his life-inspired works - stylistically between modern mainstream and Bob Brookmeyer, in whose New Art Orchestra he was a founding member as a trumpeter. The pre-single "Sir Charles' Teatime" is part of the album "Music Written by Real Life" (Part I), which will be released in August 2023.

Tracklist:
01. Sir Charles' Teatime
02. Basie Day
03. It´s Only Life
04. Lester Left Town
05. D' Is To Drive
06. The Fluffer

foobar2000 1.4.1 / Dynamic Range Meter 1.1.1
log date: 2023-08-08 14:42:13

––––––––––––––––––––––––––––––––––––––––
Analyzed: SWR Big Band & Torsten Maaß / Music Written by Real Life (Part I)
––––––––––––––––––––––––––––––––––––––––

DR Peak RMS Duration Track
––––––––––––––––––––––––––––––––––––––––
DR13 -0.11 dB -16.04 dB 4:22 01-Sir Charles' Teatime
DR11 0.00 dB -13.16 dB 7:21 02-Basie Day
DR11 -0.12 dB -14.06 dB 5:04 03-It´s Only Life
DR9 -0.13 dB -11.94 dB 5:34 04-Lester Left Town
DR11 -0.08 dB -12.90 dB 5:37 05-D' Is To Drive
DR10 -0.10 dB -12.62 dB 7:43 06-The Fluffer
––––––––––––––––––––––––––––––––––––––––

Number of tracks: 6
Official DR value: DR11

Samplerate: 44100 Hz
Channels: 2
Bits per sample: 24
Bitrate: 1600 kbps
Codec: FLAC
================================================================================


Thanks to the Original customer!