Tags
Language
Tags
February 2024
Su Mo Tu We Th Fr Sa
28 29 30 31 1 2 3
4 5 6 7 8 9 10
11 12 13 14 15 16 17
18 19 20 21 22 23 24
25 26 27 28 29 1 2
Attention❗ To save your time, in order to download anything on this site, you must be registered 👉 HERE. If you do not have a registration yet, it is better to do it right away. ✌

( • )( • ) ( ͡⚆ ͜ʖ ͡⚆ ) (‿ˠ‿)
SpicyMags.xyz

SWR Big Band & Torsten Maaß - Music Written by Real Life (Part II) (2023) [Official Digital Download]

Posted By: delpotro
SWR Big Band & Torsten Maaß - Music Written by Real Life (Part II) (2023) [Official Digital Download]

SWR Big Band & Torsten Maaß - Music Written by Real Life (Part II) (2023)
FLAC (tracks) 24-bit/44,1 kHz | Front Cover | Time - 32:57 minutes | 363 MB
Jazz, Big Band | Label: SWR Music, Official Digital Download

Established trumpeter Torsten Maaß has been working for many years with numerous big bands as a composer, arranger and guest conductor. He collaborated on productions with Max Mutzke, Clueso, Ack van Rooyen and many more. Under his direction, the SWR Big Band played and recorded a selection of his life-inspired works that lay stylistically between modern mainstream and Bob Brookmeyer, in whose New Art Orchestra he was a founding member as a trumpeter. This collection of works is now released on the album Music Written by Real Life.

Tracklist:
01. Return of the Saints
02. Cutie
03. How Insensitive
04. Funky T.
05. Blues and the Outdoor Truth
06. Can´t Stop My Neck

foobar2000 1.4.1 / Dynamic Range Meter 1.1.1
log date: 2023-12-05 19:13:55

––––––––––––––––––––––––––––––––––––––––
Analyzed: SWR Big Band & Torsten Maaß / Music Written by Real Life (Part II)
––––––––––––––––––––––––––––––––––––––––

DR Peak RMS Duration Track
––––––––––––––––––––––––––––––––––––––––
DR10 -0.11 dB -12.70 dB 5:45 01-Return of the Saints
DR10 -0.15 dB -12.60 dB 3:57 02-Cutie
DR12 -0.15 dB -14.37 dB 4:56 03-How Insensitive
DR11 -0.10 dB -13.75 dB 5:15 04-Funky T.
DR12 -0.15 dB -16.14 dB 4:16 05-Blues and the Outdoor Truth
DR11 -0.01 dB -13.27 dB 8:48 06-Can´t Stop My Neck
––––––––––––––––––––––––––––––––––––––––

Number of tracks: 6
Official DR value: DR11

Samplerate: 44100 Hz
Channels: 2
Bits per sample: 24
Bitrate: 1563 kbps
Codec: FLAC
================================================================================


Thanks to the Original customer!

Part1 is here