Tags
Language
Tags

The Bombay Royale - Run Kitty Run (2017) [Official Digital Download]

Posted By: El Misha
The Bombay Royale - Run Kitty Run (2017) [Official Digital Download]

The Bombay Royale - Run Kitty Run (2017)
FLAC (tracks) 24-bit/48 kHz | Time - 45:05 | 555 MB
Studio Master, Official Digital Download | Artwork: Front cover

Cult band The Bombay Royale are set for a triumphant return with their third studio masterpiece ‘Run Kitty Run’. A Retro Bollywood fuelled rampage through Psyche-Surf, 80’s Electro-Pop and Desert Rock, ‘Run Kitty Run’ is, like its predecessors, conceived as the soundtrack to a lost film.The music conjures into life a devastated futuristic landscape peopled by robotic horsemen, killer satellites and grinning sadhus. Overlaid with vocals in Hindi, Bengali and English, the resulting soundtrack is one of love and betrayal, hopeless escapes and unlikely salvation.

Tracklist:

01. Ballygunge
02. I Love You Love You
03. Run Kitty Run
04. The Raan Of Kutch
05. Nucky Day Nucky Dah Nucky Doo
06. Zhooti Naina
07. (Mera Nam Hai) Lucky
08. Mauja
09. RoboBeez
10. Gunslinger's Lullaby
11. Bhediya
12. Tumi Ami

foobar2000 1.3.16 / Dynamic Range Meter 1.1.1
log date: 2018-04-09 15:13:54
––––––––––––––––––––––––––––––––––––––––
Analyzed: The Bombay Royale / Run Kitty Run
––––––––––––––––––––––––––––––––––––––––
DR Peak RMS Duration Track
––––––––––––––––––––––––––––––––––––––––
DR8 -0.10 dB -8.90 dB 3:17 01-Ballygunge
DR9 -0.10 dB -10.69 dB 2:58 02-I Love You Love You
DR8 -0.10 dB -9.48 dB 2:48 03-Run Kitty Run
DR10 -0.10 dB -11.38 dB 5:00 04-The Raan Of Kutch
DR9 -0.10 dB -9.51 dB 2:44 05-Nucky Day Nucky Dah Nucky Doo
DR8 -0.10 dB -10.72 dB 5:31 06-Zhooti Naina
DR11 -0.10 dB -11.87 dB 2:53 07-(Mera Nam Hai) Lucky
DR11 -0.10 dB -11.96 dB 4:17 08-Mauja
DR10 -0.10 dB -10.98 dB 3:45 09-RoboBeez
DR10 -0.10 dB -11.39 dB 3:39 10-Gunslinger's Lullaby
DR9 -0.10 dB -10.91 dB 3:42 11-Bhediya
DR10 -0.10 dB -11.55 dB 4:30 12-Tumi Ami
––––––––––––––––––––––––––––––––––––––––
Number of tracks: 12
Official DR value: DR9
Samplerate: 48000 Hz
Channels: 2
Bits per sample: 24
Bitrate: 1592 kbps
Codec: FLAC
================================================================================


Thanks to the Original customer!