Tags
Language
Tags

The Kinks - Muswell Hillbillies (Deluxe Edition) (1971) [Official Digital Download 24/88]

Posted By: El Misha
The Kinks - Muswell Hillbillies (Deluxe Edition) (1971) [Official Digital Download 24/88]

The Kinks - Muswell Hillbillies (Deluxe Edition) (1971)
FLAC (tracks) 24-bit/88.2 kHz | Time - 44:57 | 898 MB
Studio Master, Official Digital Download | Artwork: Front cover

The Kinks are recognised as one of the most important and influential British groups of all time, with millions of record sales and countless awards and accolades to their name. From their explosive beginnings as part of the British Beat movement to forays into concept albums, stadium rock and acoustic balladeering, The Kinks have left an unimpeachable legacy of classic songs, many of which form the building blocks of popular music as we know it today.



Tracklist:

01-20th Century Man
02-Acute Schizophrenia Paranoia Blues
03-Holiday
04-Skin and Bone
05-Alcohol
06-Complicated Life
07-Here Come the People in Grey
08-Have a Cuppa Tea
09-Holloway Jail
10-Oklahoma USA
11-Uncle Son
12-Muswell Hillbilly

foobar2000 1.4 / Dynamic Range Meter 1.1.1
log date: 2021-12-06 22:54:48

––––––––––––––––––––––––––––––––––––––––
Analyzed: The Kinks / Muswell Hillbillies
––––––––––––––––––––––––––––––––––––––––

DR Peak RMS Duration Track
––––––––––––––––––––––––––––––––––––––––
DR11 -0.56 dB -15.79 dB 5:59 01-20th Century Man
DR12 -0.09 dB -13.29 dB 3:34 02-Acute Schizophrenia Paranoia Blues
DR13 -1.92 dB -19.20 dB 2:41 03-Holiday
DR12 -0.11 dB -14.01 dB 3:40 04-Skin and Bone
DR15 -0.10 dB -17.28 dB 3:38 05-Alcohol
DR12 -0.26 dB -15.50 dB 4:08 06-Complicated Life
DR12 -0.38 dB -15.32 dB 3:47 07-Here Come the People in Grey
DR13 -0.09 dB -15.53 dB 3:46 08-Have a Cuppa Tea
DR13 -0.05 dB -17.31 dB 3:30 09-Holloway Jail
DR11 -2.81 dB -17.52 dB 2:41 10-Oklahoma USA
DR14 -0.65 dB -17.68 dB 2:38 11-Uncle Son
DR12 -0.52 dB -15.16 dB 5:02 12-Muswell Hillbilly
––––––––––––––––––––––––––––––––––––––––

Number of tracks: 12
Official DR value: DR12

Samplerate: 88200 Hz
Channels: 2
Bits per sample: 24
Bitrate: 2760 kbps
Codec: FLAC
================================================================================



Thanks to the Original customer!