Tags
Language
Tags

The Clash - Combat Rock + The People's Hall (Remastered) (2022) [Official Digital Download]

Posted By: delpotro
The Clash - Combat Rock + The People's Hall (Remastered) (2022) [Official Digital Download]

The Clash - Combat Rock + The People's Hall (Remastered) (2022)
FLAC (tracks) 24-bit/44,1 kHz | Front Cover | Time - 101:27 minutes | 1,14 GB
New Wave, Punk Rock, Post-Punk | Label: Sony Music, Official Digital Download

Originally released in May 1982, Combat Rock is the final album from The Clash of Joe Strummer, Mick Jones, Paul Simonon and Topper Headon. Featuring two of the bands most well-known songs, 'Should I Stay Or Should I Go' and 'Rock The Casbah'. Now re-released as a double remaster-edition, with an additional 12-tracks compiled by The Clash.

Having returned to London following their pivotal 17-show residency at New Yorks Bond's Casino in 1981, the band rehearsed and recorded at The Peoples Hall in the squatted Republic of Frestonia near Latimer Road in London and from there they embarked on a tour of the East and South East Asia, during which the album sleeve image was captured by Pennie Smith in Thailand.

The tracks on The People's Hall chart the period from what was their last single Radio Clash right up to the release of Combat Rock, including unheard, rare and early versions of tracks.

The album highlights a new version of ‘Know Your Rights’ which was recorded at The People’s Hall on the Rolling Stones Mobile Studio, and the previously unreleased instrumental ‘He Who Dares Or Is Tired’. Other notable tracks include ‘Futura 2000’, an unreleased original mix of ‘The Escapades of Futura 2000’, Mikey Dread’s ‘Radio One’, and the outtakes ‘The Fulham Connection’, previously known as ‘The Beautiful People Are Ugly Too’ as well as ‘Idle in Kangaroo Court’.

‘Combat Rock’ is indicative of The Clash’s constant evolution and was influenced in part by the relatively recent end of the Vietnam War, particularly on ‘Sean Flynn’, inspired by the disappearance of the photojournalist and film star’s son. The band’s curiosity and range is illustrated by the many styles and voices here, notably poet Allen Ginsberg’s apocalyptic spoken word on ‘Ghetto Defendant’ and graffiti artist Futura’s rap on ‘Overpowered By Funk’.

The Clash’s influence on punk, post-punk and indie rock is well documented and ‘Combat Rock’ specifically continues to inspire waves of rediscovery from new audiences, most notably with the use of ‘Should I Stay Or Should I Go’ as a prominent plot device in the first season of the Netflix smash ‘Stranger Things’. Meanwhile, ‘Straight To Hell’ remains instantly recognizable having been used in ‘Paper Planes’ by M.I.A.

Tracklist:
Disc 1 (46:14)
1. Know Your Rights (Remastered) (03:39)
2. Car Jamming (Remastered) (03:59)
3. Should I Stay or Should I Go (Remastered) (03:09)
4. Rock the Casbah (Remastered) (03:42)
5. Red Angel Dragnet (Remastered) (03:44)
6. Straight to Hell (Remastered) (05:30)
7. Overpowered by Funk (Remastered) (04:52)
8. Atom Tan (Remastered) (02:30)
9. Sean Flynn (Remastered) (04:31)
10. Ghetto Defendant (Remastered) (04:43)
11. Inoculated City (Remastered) (02:41)
12. Death is a Star (Remastered) (03:14)

Disc 2 (55:03)
1. Outside Bonds (04:21)
2. This is Radio Clash (Different Lyrics) (04:10)
3. Futura 2000 (05:54)
4. First Night Back in London (02:11)
5. Radio One (06:17)
6. He Who Dares or Is Tired (02:53)
7. Long Time Jerk (05:09)
8. The Fulham Connection (Outtake) (03:44)
9. Midnight to Stevens (Outtake) (04:36)
10. Sean Flynn (Extended 'Marcus Music' Version) (07:22)
11. Idle in Kangaroo Court (05:04)
12. Know Your Rights (03:22)

foobar2000 1.4.1 / Dynamic Range Meter 1.1.1
log date: 2022-05-20 10:17:34

––––––––––––––––––––––––––––––––––––––––
Analyzed: The Clash / Combat Rock + The People's Hall
––––––––––––––––––––––––––––––––––––––––

DR Peak RMS Duration Track
––––––––––––––––––––––––––––––––––––––––
DR10 -0.03 dB -11.48 dB 3:40 01-Know Your Rights (Remastered)
DR10 -0.01 dB -11.42 dB 4:00 02-Car Jamming (Remastered)
DR9 -0.01 dB -10.81 dB 3:09 03-Should I Stay or Should I Go (Remastered)
DR9 -0.01 dB -11.10 dB 3:42 04-Rock the Casbah (Remastered)
DR10 -0.09 dB -11.26 dB 3:45 05-Red Angel Dragnet (Remastered)
DR12 -0.02 dB -14.03 dB 5:30 06-Straight to Hell (Remastered)
DR10 -0.04 dB -12.46 dB 4:52 07-Overpowered by Funk (Remastered)
DR9 -0.07 dB -11.18 dB 2:30 08-Atom Tan (Remastered)
DR12 -0.10 dB -15.00 dB 4:31 09-Sean Flynn (Remastered)
DR11 -0.03 dB -13.20 dB 4:43 10-Ghetto Defendant (Remastered)
DR10 -0.09 dB -12.10 dB 2:41 11-Inoculated City (Remastered)
DR14 -0.01 dB -17.92 dB 3:15 12-Death is a Star (Remastered)
––––––––––––––––––––––––––––––––––––––––

Number of tracks: 12
Official DR value: DR10

Samplerate: 44100 Hz
Channels: 2
Bits per sample: 24
Bitrate: 1505 kbps
Codec: FLAC
================================================================================

foobar2000 1.4.1 / Dynamic Range Meter 1.1.1
log date: 2022-05-20 10:17:58

––––––––––––––––––––––––––––––––––––––––
Analyzed: The Clash / Combat Rock + The People's Hall
––––––––––––––––––––––––––––––––––––––––

DR Peak RMS Duration Track
––––––––––––––––––––––––––––––––––––––––
DR17 -6.28 dB -27.65 dB 4:21 01-Outside Bonds
DR9 -0.23 dB -10.89 dB 4:11 02-This is Radio Clash (Different Lyrics)
DR10 -0.01 dB -10.62 dB 5:55 03-Futura 2000
DR11 -0.01 dB -12.21 dB 2:12 04-First Night Back in London
DR10 -0.01 dB -11.92 dB 6:18 05-Radio One
DR9 -0.01 dB -10.40 dB 2:53 06-He Who Dares or Is Tired
DR11 -0.01 dB -12.85 dB 5:10 07-Long Time Jerk
DR11 -0.20 dB -12.66 dB 3:45 08-The Fulham Connection (Outtake)
DR11 -0.16 dB -13.14 dB 4:36 09-Midnight to Stevens (Outtake)
DR11 -0.20 dB -14.00 dB 7:23 10-Sean Flynn (Extended 'Marcus Music' Version)
DR10 -0.01 dB -12.60 dB 5:04 11-Idle in Kangaroo Court
DR7 -0.20 dB -7.81 dB 3:22 12-Know Your Rights
––––––––––––––––––––––––––––––––––––––––

Number of tracks: 12
Official DR value: DR10

Samplerate: 44100 Hz
Channels: 2
Bits per sample: 24
Bitrate: 1683 kbps
Codec: FLAC
================================================================================


Thanks to the Original customer!