Tags
Language
Tags
June 2024
Su Mo Tu We Th Fr Sa
26 27 28 29 30 31 1
2 3 4 5 6 7 8
9 10 11 12 13 14 15
16 17 18 19 20 21 22
23 24 25 26 27 28 29
30 1 2 3 4 5 6

The Kraken Consort - O’er the Moor: Songs and Dances from Scotland and Ireland (2024) [Official Digital Download 24/96]

Posted By: delpotro
The Kraken Consort - O’er the Moor: Songs and Dances from Scotland and Ireland (2024) [Official Digital Download 24/96]

The Kraken Consort - O’er the Moor: Songs and Dances from Scotland and Ireland (2024)
FLAC (tracks) 24-bit/96 kHz | Front Cover | Time - 63:05 minutes | 1,16 GB
Classical, Vocal, Folk | Label: Alpha Classics, Official Digital Download

The Kraken Consort was born in 2021 from the imagination of three musicians, friends and colleagues: theorbist Bruno Helstroffer, soprano Chantal Santon Jeffery and tenor Robert Getchell, a Celtic music enthusiast. They share a taste for traditional oral and improvised music, and were keen to team up with instrumentalists with in-depth experience of traditional music: Ronan Pellen (cistre), Brewen Favrau (piper), Sylvain Barou (flute), David Lombardi (violin) and Laurène Durantel (double bass). For their debut album, Kraken Consort revisit the Irish and Scottish musical tradition.

Tracklist:
01 - Oft in the Stilly Night (Arr. for Ensemble by The Kraken Consort and Kate Dineen)
02 - Kathrine Oggie (Arr. for Ensemble by The Kraken Consort)
03 - Suite of reels (Arr. for Ensemble by The Kraken Consort)
04 - Bridget O’Malley (Arr. for Ensemble by The Kraken Consort)
05 - Sí Bheag, Sí Mhór (Arr. for Ensemble by The Kraken Consort)
06 - My Dearie Gin Thou Die (Arr. for Ensemble by The Kraken Consort)
07 - The Emigrant’s Farewell (Arr. for Ensemble by The Kraken Consort)
08 - Amhran na Leabhar (Arr. for Ensemble by The Kraken Consort)
09 - Sixteen Come Next Sunday (Arr. for Ensemble by The Kraken Consort)
10 - Slán le Máigh (Arr. for Ensemble by The Kraken Consort)
11 - Henry McDermot Roe second air (Arr. for Ensemble by The Kraken Consort)
12 - Scottish Set (Arr. for Ensemble by The Kraken Consort)
13 - Time Will Cure Me (Arr. for Ensemble by The Kraken Consort)
14 - Plac’hik Eussa (Arr. for Ensemble by The Kraken Consort)

foobar2000 1.4.1 / Dynamic Range Meter 1.1.1
log date: 2024-02-29 16:09:35

––––––––––––––––––––––––––––––––––––––––
Analyzed: The Kraken Consort / O’er the Moor: Songs and Dances from Scotland and Ireland
––––––––––––––––––––––––––––––––––––––––

DR Peak RMS Duration Track
––––––––––––––––––––––––––––––––––––––––
DR9 -0.34 dB -12.20 dB 7:19 01-Oft in the Stilly Night (Arr. for Ensemble by The Kraken Consort and Kate Dineen)
DR10 -0.34 dB -13.12 dB 4:34 02-Kathrine Oggie (Arr. for Ensemble by The Kraken Consort)
DR8 -0.34 dB -10.75 dB 3:33 03-Suite of reels (Arr. for Ensemble by The Kraken Consort)
DR10 -0.34 dB -12.25 dB 3:47 04-Bridget O’Malley (Arr. for Ensemble by The Kraken Consort)
DR12 -0.34 dB -15.17 dB 4:02 05-Sí Bheag, Sí Mhór (Arr. for Ensemble by The Kraken Consort)
DR7 -0.34 dB -9.77 dB 4:25 06-My Dearie Gin Thou Die (Arr. for Ensemble by The Kraken Consort)
DR8 -0.34 dB -11.73 dB 4:56 07-The Emigrant’s Farewell (Arr. for Ensemble by The Kraken Consort)
DR8 -0.34 dB -11.90 dB 3:41 08-Amhran na Leabhar (Arr. for Ensemble by The Kraken Consort)
DR8 -0.34 dB -10.72 dB 3:57 09-Sixteen Come Next Sunday (Arr. for Ensemble by The Kraken Consort)
DR10 -0.34 dB -13.33 dB 2:47 10-Slán le Máigh (Arr. for Ensemble by The Kraken Consort)
DR10 -0.34 dB -14.99 dB 3:45 11-Henry McDermot Roe second air (Arr. for Ensemble by The Kraken Consort)
DR9 -0.34 dB -10.43 dB 5:07 12-Scottish Set (Arr. for Ensemble by The Kraken Consort)
DR10 -0.34 dB -12.62 dB 5:10 13-Time Will Cure Me (Arr. for Ensemble by The Kraken Consort)
DR8 -0.34 dB -11.19 dB 6:04 14-Plac’hik Eussa (Arr. for Ensemble by The Kraken Consort)
––––––––––––––––––––––––––––––––––––––––

Number of tracks: 14
Official DR value: DR9

Samplerate: 96000 Hz
Channels: 2
Bits per sample: 24
Bitrate: 2545 kbps
Codec: FLAC
================================================================================


Thanks to the Original customer!