Tags
Language
Tags

The Zappa Band - Holmdel (2021) [Official Digital Download 24/48]

Posted By: delpotro
The Zappa Band - Holmdel (2021) [Official Digital Download 24/48]

The Zappa Band - Holmdel (2021)
FLAC (tracks) 24-bit/48 kHz | Front Cover | Time - 49:35 minutes | 578 MB
Progressive Rock, Jazz Rock | Label: ZB Touring, Official Digital Download

The Zappa Band features former touring members of Frank Zappa‘s backing band (Mike Keneally, Scott Thunes, Ray White, and Robert Martin) as well as Joe Travers, who played in Dweezil and Ahmet Zappa‘s band Z in the early 1990s.

Tracklist:
01. Intro - Holmdel (Live)
02. Zomby Woof (Live)
03. Peaches En Regalia (Live)
04. I Ain't Got No Heart (Live)
05. What's New In Baltimore? (Live)
06. Village Of The Sun (Live)
07. Echidna's Arf (Of You) (Live)
08. City Of Tiny Lites (Live)
09. Alien Orifice (Live)
10. Florentine Pogen (Live)
11. Andy (Live)

foobar2000 1.4.1 / Dynamic Range Meter 1.1.1
log date: 2021-10-01 14:55:21

––––––––––––––––––––––––––––––––––––––––
Analyzed: The Zappa Band / Holmdel
––––––––––––––––––––––––––––––––––––––––

DR Peak RMS Duration Track
––––––––––––––––––––––––––––––––––––––––
DR17 -10.31 dB -34.59 dB 0:48 01-Intro - Holmdel (Live)
DR16 -0.89 dB -18.53 dB 4:25 02-Zomby Woof (Live)
DR15 -1.32 dB -18.81 dB 3:14 03-Peaches En Regalia (Live)
DR14 -2.92 dB -17.97 dB 2:17 04-I Ain't Got No Heart (Live)
DR17 -0.32 dB -19.43 dB 6:18 05-What's New In Baltimore? (Live)
DR15 -1.38 dB -18.30 dB 3:24 06-Village Of The Sun (Live)
DR16 -0.37 dB -18.68 dB 3:59 07-Echidna's Arf (Of You) (Live)
DR14 -2.92 dB -18.92 dB 6:02 08-City Of Tiny Lites (Live)
DR14 -2.19 dB -19.62 dB 4:25 09-Alien Orifice (Live)
DR17 -0.57 dB -18.71 dB 7:33 10-Florentine Pogen (Live)
DR17 -0.10 dB -19.18 dB 7:10 11-Andy (Live)
––––––––––––––––––––––––––––––––––––––––

Number of tracks: 11
Official DR value: DR16

Samplerate: 48000 Hz
Channels: 2
Bits per sample: 24
Bitrate: 1608 kbps
Codec: FLAC
================================================================================


Thanks to the Original customer!