Tags
Language
Tags

Thy Catafalque - Naiv (2020) [Official Digital Download 24/96]

Posted By: delpotro
Thy Catafalque - Naiv (2020) [Official Digital Download 24/96]

Thy Catafalque - Naiv (2020)
FLAC (tracks) 24-bit/96 kHz | Front Cover | Time - 47:06 minutes | 935 MB
Avant-Garde Metal | Label: Season of Mist, Official Digital Download

THY CATAFALQUE, the breathtaking project of visionary composer Tamas Katai, returns with the exhilarating new album 'Naiv.' The fourth THY CATAFALQUE album in five years from the prolific Katai, 'Naiv' is yet another style-blending tapestry of progressive metallic rock. The record seamlessly weaves elements of Hungarian folk music, seductive female vocals, colorful horns, and synthwave into a potent cocktail of chimeric and unmissable hard rock splendor.

Tracklist:
1. A bolyongás ideje (04:55)
2. Tsitsushka (05:39)
3. Embersólyom (04:17)
4. Számtalan színek (02:34)
5. A valóság kazamatái (05:30)
6. Kék madár (Négy kép) (06:27)
7. Napút (03:48)
8. Vető (08:17)
9. Szélvész (05:38)

foobar2000 1.4.1 / Dynamic Range Meter 1.1.1
log date: 2021-07-07 11:51:20

––––––––––––––––––––––––––––––––––––––––
Analyzed: Thy Catafalque / Naiv
––––––––––––––––––––––––––––––––––––––––

DR Peak RMS Duration Track
––––––––––––––––––––––––––––––––––––––––
DR6 -0.20 dB -7.60 dB 4:55 01-A bolyongás ideje
DR5 -0.20 dB -6.92 dB 5:39 02-Tsitsushka
DR5 -0.20 dB -7.48 dB 4:17 03-Embersólyom (Kaláka)
DR8 -0.20 dB -10.28 dB 2:34 04-Számtalan színek
DR6 -0.20 dB -7.61 dB 5:30 05-A valóság kazamatái
DR7 -0.20 dB -11.94 dB 6:27 06-Kék madár (Négy kép)
DR6 -0.20 dB -8.35 dB 3:48 07-Napút
DR5 -0.20 dB -8.37 dB 8:17 08-Vető
DR5 -0.20 dB -6.97 dB 5:38 09-Szélvész
––––––––––––––––––––––––––––––––––––––––

Number of tracks: 9
Official DR value: DR6

Samplerate: 96000 Hz
Channels: 2
Bits per sample: 24
Bitrate: 2987 kbps
Codec: FLAC
================================================================================


Thanks to the Original customer!