Tags
Language
Tags

Thy Catafalque - Vadak (2021) [Official Digital Download 24/96]

Posted By: delpotro
Thy Catafalque - Vadak (2021) [Official Digital Download 24/96]

Thy Catafalque - Vadak (2021)
FLAC (tracks) 24-bit/96 kHz | Front Cover | Time - 62:17 minutes | 1,22 GB
Avant-Garde Metal | Label: Season of Mist, Official Digital Download

THY CATAFALQUE do not pretend to produce easy-listening music that comes as easy as it quickly fades out of the mind again. ‘Vadak’, the Hungarian act’s tenth full-length album, demands to be listened to with full attention, but with every new spin this masterpiece reveals more of its secrets and rewards the listener with a rich treasure of fascinating details.

Tracklist:
1. Szarvas (05:38)
2. Köszöntsd a hajnalt (04:27)
3. Gömböc (05:05)
4. Az energiamegmaradás törvénye (06:50)
5. Móló (10:04)
6. A kupolaváros titka (03:19)
7. Kiscsikó (Irénke dala) (03:46)
8. Piros-sárga (05:06)
9. Vadak (Az átváltozás rítusai) (12:24)
10. Zúzmara (05:33)

foobar2000 1.6.6 / Dynamic Range Meter 1.1.1
log date: 2021-06-24 21:56:53

––––––––––––––––––––––––––––––––––––––––
Analyzed: Thy Catafalque / Vadak
––––––––––––––––––––––––––––––––––––––––

DR Peak RMS Duration Track
––––––––––––––––––––––––––––––––––––––––
DR6 -0.48 dB -9.07 dB 5:39 01-Szarvas
DR8 -0.48 dB -10.18 dB 4:28 02-Köszöntsd a hajnalt
DR6 -0.48 dB -9.13 dB 5:06 03-Gömböc
DR7 -0.48 dB -10.03 dB 6:51 04-Az energiamegmaradás törvénye
DR7 -0.48 dB -10.52 dB 10:04 05-Móló
DR10 -0.48 dB -11.94 dB 3:19 06-A kupolaváros titka
DR7 -0.48 dB -9.58 dB 3:46 07-Kiscsikó (Irénke dala)
DR6 -0.48 dB -8.72 dB 5:06 08-Piros-sárga
DR6 -0.48 dB -9.62 dB 12:25 09-Vadak (Az átváltozás rítusai)
DR9 -0.48 dB -11.72 dB 5:34 10-Zúzmara
––––––––––––––––––––––––––––––––––––––––

Number of tracks: 10
Official DR value: DR7

Samplerate: 96000 Hz
Channels: 2
Bits per sample: 24
Bitrate: 2470 kbps
Codec: FLAC
================================================================================


Thanks to the Original customer!