Tim Bowness & Peter Chilvers - Modern Ruins (2020) [Official Digital Download]

Posted By: delpotro
Tim Bowness & Peter Chilvers - Modern Ruins (2020) [Official Digital Download]

Tim Bowness & Peter Chilvers - Modern Ruins (2020)
FLAC (tracks) 24-bit/44,1 kHz | Front Cover | Time - 40:22 minutes | 405 MB
Art Rock, Electronic | Label: Burning Shed, Official Digital Download

18 years after the duo’s debut California, Norfolk, Tim Bowness (No-Man) and Peter Chilvers (Brian Eno/Karl Hyde) return with the exquisite melancholy of Modern Ruins. Mixed by the legendary Peter Hammill, the album alternates between fragile piano-led songs and atmospheric Electronica-infused pieces which take the duo’s music to new levels of accomplishment.

Tracklist:
1. Sleeping Face (04:08)
2. The Boy From Yesterday (06:24)
3. You, Making Your Move (01:59)
4. Blog Remember Me (05:40)
5. The Love Is Always There (03:38)
6. Cowboys In Leather (03:43)
7. Slow Life To Fade (07:32)
8. Ghost In The City (07:18)

foobar2000 1.4.1 / Dynamic Range Meter 1.1.1
log date: 2020-06-03 16:05:18

––––––––––––––––––––––––––––––––––––––––
Analyzed: Tim Bowness & Peter Chilvers / Modern Ruins
––––––––––––––––––––––––––––––––––––––––

DR Peak RMS Duration Track
––––––––––––––––––––––––––––––––––––––––
DR9 -0.53 dB -12.15 dB 4:08 01-Sleeping Face
DR8 -0.53 dB -11.04 dB 6:24 02-The Boy From Yesterday
DR9 -0.53 dB -12.80 dB 1:59 03-You, Making Your Move
DR8 -0.52 dB -10.58 dB 5:40 04-Blog Remember Me
DR8 -0.53 dB -11.23 dB 3:38 05-The Love Is Always There
DR8 -0.52 dB -10.80 dB 3:43 06-Cowboys In Leather
DR8 -0.53 dB -10.44 dB 7:32 07-Slow Life To Fade
DR7 -0.52 dB -11.46 dB 7:18 08-Ghost In The City
––––––––––––––––––––––––––––––––––––––––

Number of tracks: 8
Official DR value: DR8

Samplerate: 44100 Hz
Channels: 2
Bits per sample: 24
Bitrate: 1335 kbps
Codec: FLAC
================================================================================

Thanks to the Original customer!