Tags
Language
Tags

Tommy Emmanuel - Live! Christmas Time (Live) (2020) [Official Digital Download]

Posted By: El Misha
Tommy Emmanuel - Live! Christmas Time (Live) (2020) [Official Digital Download]

Tommy Emmanuel - Live! Christmas Time (Live) (2020)
FLAC (tracks) 24-bit/44.10 kHz | Time - 44:08 | 527 MB
Studio Master, Official Digital Download | Artwork: Front cover

Tommy Emmanuel, four-time winner of Australia's Best Guitarist Award, has helped bring the art of rock guitar down under to a higher awareness by bringing a sense of jazz improvisation into a mix that also includes blues, country, rock, classical, and Spanish music.



Tracklist:

01. Tommy Emmanuel - Jingle Bells (Live)
02. Tommy Emmanuel - Rudolph the Red-Nosed Reindeer (Live)
03. Tommy Emmanuel - Christmas Time (Live)
04. Tommy Emmanuel - Jingle Bell Rock (Live)
05. Tommy Emmanuel - Amazing Grace (Live)
06. Tommy Emmanuel - Winer Wonderland (Live)
07. Tommy Emmanuel - Let it Snow! Let it Snow! Let it Snow! (Live)
08. Tommy Emmanuel - Christmas Memories / Waltzing Matilda (Live)
09. Tommy Emmanuel - I'll Be Home For Christmas (Live)
10. Tommy Emmanuel - One Christmas Night (Live)
11. Tommy Emmanuel - Guitar Boogie (Live)

foobar2000 1.4 / Dynamic Range Meter 1.1.1
log date: 2020-12-04 06:01:28

––––––––––––––––––––––––––––––––––––––––
Analyzed: Tommy Emmanuel / Live! Christmas Time (Live)
––––––––––––––––––––––––––––––––––––––––

DR Peak RMS Duration Track
––––––––––––––––––––––––––––––––––––––––
DR15 -0.10 dB -17.24 dB 2:52 01-Jingle Bells (Live)
DR13 0.00 dB -14.83 dB 2:16 02-Rudolph the Red-Nosed Reindeer (Live)
DR12 -0.02 dB -13.86 dB 3:14 03-Christmas Time (Live)
DR14 -0.04 dB -15.97 dB 2:40 04-Jingle Bell Rock (Live)
DR12 -0.13 dB -15.89 dB 5:28 05-Amazing Grace (Live)
DR14 -0.02 dB -16.98 dB 4:56 06-Winer Wonderland (Live)
DR11 -0.11 dB -13.97 dB 2:25 07-Let it Snow! Let it Snow! Let it Snow! (Live)
DR15 -0.19 dB -17.05 dB 3:22 08-Christmas Memories / Waltzing Matilda (Live)
DR14 -0.10 dB -16.18 dB 4:26 09-I'll Be Home For Christmas (Live)
DR13 -0.08 dB -16.97 dB 4:29 10-One Christmas Night (Live)
DR11 -0.94 dB -14.13 dB 8:04 11-Guitar Boogie (Live)
––––––––––––––––––––––––––––––––––––––––

Number of tracks: 11
Official DR value: DR13

Samplerate: 44100 Hz
Channels: 2
Bits per sample: 24
Bitrate: 1672 kbps
Codec: FLAC
================================================================================



Thanks to the Original customer!