Tom Petty – Full Moon Fever (1989) 24-bit 96kHZ vinyl rip and redbook

Posted By: 86ed
Tom Petty – Full Moon Fever (1989) 24-bit 96kHZ vinyl rip and redbook

Tom Petty – Full Moon Fever
Vinyl rip in 24-bit / 96kHZ and redbook | FLAC | no cue or log (vinyl) | full artwork
870 MB (24/96) + 265 MB (RB) | FS + WU + HF + FF + RS | Rock | 1989
MCA 6253 ~ US release

Full Moon Fever is the first solo album by Tom Petty, though it features contributions from several members of his backing band, the Heartbreakers, along with fellow members of the Traveling Wilburys.

Reviews
BBC | Rolling Stone | Robert Christgau

Tracks
“Free Fallin’” – 4:14
“I Won’t Back Down” – 2:56
“Love Is a Long Road” (Mike Campbell, Petty) – 4:06
“A Face in the Crowd” – 3:58
“Runnin’ Down a Dream” (Campbell, Lynne, Petty) – 4:23
“I’ll Feel a Whole Lot Better” (Gene Clark) – 2:47
“Yer So Bad” – 3:05
“Depending on You” (Petty) – 2:47
“The Apartment Song” (Petty) – 2:31
“Alright for Now” (Petty) – 2:00
“A Mind with a Heart of Its Own” – 3:29
“Zombie Zoo” – 2:56

Personnel
Tom Petty – acoustic guitar, electric guitar, keyboards, sound effects, tambourine, vocals, handclapping
Jeff Lynne – bass, electric guitar, keyboards, sound effects, backing vocals, handclapping
Mike Campbell – bass, guitar, mandolin, keyboards, slide guitar
Phil Jones – percussion, drums

Additional personnel
Benmont Tench – piano on “The Apartment Song”
Kelsey Campbell – sound effects, vocals
George Harrison – acoustic guitar and backing vocals on “I Won’t Back Down”
Roy Orbison – backing vocals on “Zombie Zoo”
Jim Keltner – drums, maracas and tambourine on “Love Is a Long Road”
Howie Epstein – backing vocals on “I Won’t Back Down” and “Love Is a Long Road”
Del Shannon – barnyard noises in the “Hello, CD listeners…” interlude
Don Smith, Bill Bottrell – Engineering
Alan Weidel – Handclapping, Engineering

———————————————————————————————-
Analyzed folder: /TomPettyFullMoonFever
———————————————————————————————-
DR Peak RMS Filename
———————————————————————————————-
DR13 -5.05 dB -20.76 dB A1 Free Fallin’.wav
DR13 -5.68 dB -21.20 dB A2 I Won’t Back Down.wav
DR11 -6.07 dB -19.67 dB A3 Love Is A Long Road.wav
DR14 -6.13 dB -21.35 dB A4 A Face In The Crowd.wav
DR13 -5.40 dB -19.19 dB A5 Runnin’ Down A Dream.wav
DR12 -6.43 dB -19.83 dB B1 Fell A Whole Lot Better.wav
DR12 -7.51 dB -21.06 dB B2 Yer So Bad.wav
DR13 -5.44 dB -19.91 dB B3 Depending On You.wav
DR14 -5.82 dB -20.89 dB B4 The Apartment Song.wav
DR11 -10.89 dB -25.68 dB B5 Alright For Now.wav
DR13 -5.68 dB -20.17 dB B6 A Mind With A Heart Of It’s Own.wav
DR12 -6.63 dB -20.19 dB B7 Zombie Zoo.wav
———————————————————————————————-
Number of files: 12
Official DR value: DR13
==============================================================================================


manufacture: pressed by record company → hole drilled near the middle
power: Dedicated circuit, Monster HTS1000 PowerCenter
cleaning: steam clean → wash → distilled h2O rinse → vacuum → carbon fibre brush → zerostat
hw: Technics SL1100-A w/ AT-OC9ML/II → Pro-Ject Tube Box SE II → E-MU 0404 → MacBook Pro
sw: Audacity [capture 24-bit/96kHZ] → Izotope RX2 [de-click/resample] → Xact [sbe correction] → XLD [flac/[i]proper tagging]

download links

wupload links

filesonic links

hotfile links

filefactory links

rapidshare links
redbook hires-1 hires-2 hires-3


all files interchangeable

password: analog